<svg xmlns="http://www.w3.org/2000/svg">
<defs>
<font
       vert-adv-y="90"
       vert-origin-y="90"
       vert-origin-x="45"
       horiz-origin-y="0"
       horiz-origin-x="0"
       horiz-adv-x="722"
       font-weight="700"
       font-variant="normal"
       id="FontID0">
      <font-face
         font-family="Arial"
         id="font-face2" />
      <missing-glyph
         id="missing-glyph6">
        <path
           d="M 0 0 Z"
           id="path4" />
      </missing-glyph>
      <glyph
         unicode="D"
         horiz-adv-x="722"
         id="glyph10">
        <path
           d="M 72.9993 716.001 l 263.669 0 c 59.4971 0 104.834 -4.50075 136.002 -13.6706 c 41.8309 -12.3311 77.8292 -34.3297 107.666 -65.9956 c 29.9973 -31.5052 52.6618 -70.1672 68.3302 -116.001 c 15.5 -45.6657 23.3304 -102.17 23.3304 -169.168 c 0 -58.9996 -7.33285 -109.664 -21.9985 -152.329 c -17.8346 -52.1719 -43.3312 -94.3396 -76.4974 -126.503 c -24.999 -24.5015 -58.8312 -43.4996 -101.336 -57.1702 c -31.8344 -10.165 -74.3312 -15.1632 -127.667 -15.1632 l -271.499 0 l 0 716.001 Z m 145.004 -121 l 0 -474.002 l 107.497 0 c 40.1699 0 69.1645 2.33457 86.9991 6.83532 c 23.4988 5.8326 42.8336 15.8292 58.1653 29.8289 c 15.5 13.9998 27.9995 37.001 37.667 69.0038 c 9.83581 32.0028 14.6657 75.8315 14.6657 131.165 c 0 55.3332 -4.82988 97.6693 -14.6657 127.337 c -9.66742 29.6605 -23.3304 52.6618 -40.8282 69.3329 c -17.5055 16.4951 -39.6724 27.8311 -66.6692 33.6637 c -20.0008 4.50075 -59.5048 6.83532 -118.168 6.83532 l -64.6638 0 Z"
           id="path8" />
      </glyph>
      <glyph
         unicode="A"
         horiz-adv-x="722"
         id="glyph14">
        <path
           d="M 717.999 0 l -156.164 0 l -61.8317 162.999 l -287.168 0 l -59.5048 -162.999 l -153.332 0 l 277.998 716.001 l 153.171 0 l 286.831 -716.001 Z m -265.001 283.999 l -99.4986 265.001 l -96.6665 -265.001 l 196.165 0 Z"
           id="path12" />
      </glyph>
      <glyph
         unicode="L"
         horiz-adv-x="610"
         id="glyph18">
        <path
           d="M 77.0026 0 l 0 710 l 144.996 0 l 0 -589.001 l 359.003 0 l 0 -121 l -503.999 0 Z"
           id="path16" />
      </glyph>
      <glyph
         unicode="P"
         horiz-adv-x="666"
         id="glyph22">
        <path
           d="M 72.9993 0 l 0 716.001 l 231.834 0 c 87.8334 0 144.996 -3.49803 171.664 -10.6701 c 41.0042 -10.8309 75.3339 -34.1613 103.004 -70.1672 c 27.6628 -35.9983 41.5018 -82.4984 41.5018 -139.5 c 0 -43.9971 -8.00643 -80.8297 -23.8356 -110.827 c -15.9976 -30.005 -36.1667 -53.5038 -60.6682 -70.6724 c -24.5015 -17.0003 -49.5006 -28.3287 -74.8364 -33.8321 c -34.4981 -6.83532 -84.3278 -10.3333 -149.665 -10.3333 l -93.9952 0 l 0 -269.999 l -145.004 0 Z m 145.004 595.002 l 0 -204.003 l 78.8319 0 c 56.8334 0 94.6688 3.83482 113.835 11.3361 c 19.1664 7.50124 34.1613 19.1664 44.9998 35.3324 c 10.8309 15.9976 16.3267 34.4981 16.3267 55.8307 c 0 26.1702 -7.66198 47.6712 -22.8329 64.6714 c -15.3316 17.0003 -34.4981 27.6628 -57.9969 31.9951 c -17.1687 3.16889 -51.6667 4.83754 -103.67 4.83754 l -69.4937 0 Z"
           id="path20" />
      </glyph>
    </font>
    <style
       type="text/css"
       id="style25"><![CDATA[
    @font-face { font-family:"Arial";src:url("#FontID0") format(svg)}
    .fil5 {fill:#FF6600}
    .fil4 {fill:#EFB73A;fill-rule:nonzero}
    .fil2 {fill:#F9C646;fill-rule:nonzero}
    .fil1 {fill:#FCCD47;fill-rule:nonzero}
    .fil3 {fill:#FFDB80;fill-rule:nonzero}
    .fil0 {fill:#FFE8BB;fill-rule:nonzero}
    .fnt0 {font-weight:bold;font-size:1306.45px;font-family:'Arial'}
   ]]></style>
    <style
       type="text/css"
       id="style2-5"><![CDATA[
    .fil0 {fill:#10330B;fill-rule:nonzero}
    .fil1 {fill:#1C4C15;fill-rule:nonzero}
   ]]></style>
    <style
       type="text/css"
       id="style2-8"><![CDATA[
    .fil0 {fill:#2B4403;fill-rule:nonzero}
    .fil3 {fill:#2E2923;fill-rule:nonzero}
    .fil1 {fill:#4E7C05;fill-rule:nonzero}
    .fil2 {fill:#6A9615;fill-rule:nonzero}
    .fil4 {fill:#6D645B;fill-rule:nonzero}
   ]]></style>
    <font
       vert-adv-y="90"
       vert-origin-y="90"
       vert-origin-x="45"
       horiz-origin-y="0"
       horiz-origin-x="0"
       horiz-adv-x="722"
       font-weight="700"
       font-variant="normal"
       id="FontID0-2">
      <font-face
         font-family="Arial"
         id="font-face2-4" />
      <missing-glyph
         id="missing-glyph6-1">
        <path
           d="M 0 0 Z"
           id="path4-8" />
      </missing-glyph>
      <glyph
         unicode="T"
         horiz-adv-x="610"
         id="glyph10-9">
        <path
           d="M 234.001 0 l 0 594.999 l -212.004 0 l 0 121.001 l 568 0 l 0 -121.001 l -210.993 0 l 0 -594.999 l -145.002 0 Z"
           id="path8-2" />
      </glyph>
      <glyph
         unicode="s"
         horiz-adv-x="556"
         id="glyph14-6">
        <path
           d="M 22.9992 145.996 l 138.004 21.0036 c 5.83181 -26.4983 17.6594 -46.6636 35.6651 -60.3319 c 17.8326 -13.8323 43.0005 -20.6665 75.1665 -20.6665 c 35.5011 0 62.1634 6.497 80.1691 19.5001 c 11.9917 9.16687 17.9966 21.4957 17.9966 36.8315 c 0 10.3332 -3.33506 18.9989 -9.83206 25.8331 c -6.83415 6.497 -22.17 12.666 -45.8344 18.1697 c -110.832 24.4936 -181.005 46.8276 -210.665 67.002 c -41.1689 28.1658 -61.6714 67.166 -61.6714 116.992 c 0 45.1692 17.8326 83.003 53.3337 113.675 c 35.5011 30.6625 90.5024 45.9984 165.004 45.9984 c 71.0023 0 123.835 -11.6727 158.334 -34.8359 c 34.4988 -23.3363 58.3272 -57.662 71.3303 -103.168 l -129.001 -24.0015 c -5.49466 20.3384 -16.165 36.0023 -31.6649 46.8367 c -15.4998 10.8344 -37.6698 16.165 -66.5008 16.165 c -36.3303 0 -62.3365 -4.99348 -78.1644 -15.1627 c -10.4973 -7.1713 -15.6639 -16.5022 -15.6639 -27.8378 c 0 -9.83206 4.49231 -18.1606 13.6592 -24.9948 c 12.5019 -9.16687 55.3384 -22.006 128.673 -38.6722 c 73.3259 -16.6662 124.5 -36.9955 153.495 -61.1611 c 28.831 -24.3387 43.1645 -58.5003 43.1645 -102.166 c 0 -47.5019 -19.8281 -88.5068 -59.6667 -122.668 c -39.6654 -34.1707 -98.4938 -51.3381 -176.494 -51.3381 c -70.6651 0 -126.669 14.3335 -168.002 42.8364 c -41.1689 28.503 -68.1684 67.166 -80.8343 116.162 Z"
           id="path12-7" />
      </glyph>
      <glyph
         unicode="b"
         horiz-adv-x="610"
         id="glyph18-6">
        <path
           d="M 65.9997 0 l 0 716 l 137.002 0 l 0 -258.331 c 42.3353 48.1671 92.3339 72.3326 150.333 72.3326 c 63.1658 0 115.333 -22.8352 156.666 -68.6695 c 41.3329 -45.8344 61.9994 -111.67 61.9994 -197.498 c 0 -88.6708 -21.0036 -157.003 -63.1658 -204.997 c -42.1713 -47.839 -93.5003 -71.8406 -153.668 -71.8406 c -29.6693 0 -58.8284 7.67247 -87.6685 22.8352 c -28.831 15.3358 -53.6617 37.3327 -74.5013 66.3368 l 0 -76.1689 l -126.997 0 Z m 134.997 269.502 c 0 -53.8349 8.50168 -93.8374 25.505 -119.506 c 23.8284 -36.6584 55.3293 -54.9921 94.8306 -54.9921 c 30.3345 0 56.1676 12.994 77.6633 39.0002 c 21.3408 25.9971 32.002 66.9929 32.002 122.832 c 0 59.4935 -10.8344 102.33 -32.3301 128.664 c -21.5048 26.3343 -49.0054 39.5014 -82.6659 39.5014 c -33.0044 0 -60.3319 -12.8391 -82.1647 -38.499 c -21.8328 -25.6691 -32.8404 -64.6693 -32.8404 -117.001 Z"
           id="path16-6" />
      </glyph>
      <glyph
         unicode="u"
         horiz-adv-x="610"
         id="glyph22-3">
        <path
           d="M 414.997 0 l 0 77.6633 c -18.9989 -27.6646 -43.8297 -49.6615 -74.6654 -66.1637 c -30.8357 -16.3291 -63.3298 -24.5027 -97.5005 -24.5027 c -35 0 -66.3277 7.67247 -94.0014 22.9992 c -27.8287 15.3358 -47.8299 37.0046 -60.1587 64.6693 c -12.5019 27.8378 -18.6709 66.1637 -18.6709 115.169 l 0 329.169 l 137.002 0 l 0 -239.004 c 0 -73.1618 2.49674 -117.83 7.66336 -134.332 c 5.0026 -16.5022 14.1695 -29.6693 27.6646 -39.1642 c 13.3403 -9.66804 30.3345 -14.5066 51.001 -14.5066 c 23.5004 0 44.504 6.50611 63.1658 19.3361 c 18.6709 12.83 31.3369 28.831 38.171 48.0031 c 6.83415 19.163 10.3332 65.8265 10.3332 140.328 l 0 219.34 l 137.002 0 l 0 -519.003 l -127.006 0 Z"
           id="path20-5" />
      </glyph>
      <glyph
         unicode="r"
         horiz-adv-x="389"
         id="glyph26">
        <path
           d="M 203.002 0 l -137.002 0 l 0 519.003 l 126.997 0 l 0 -73.6721 c 21.8328 34.8359 41.5061 57.6711 59.0015 68.5055 c 17.5045 10.8253 37.3327 16.165 59.5027 16.165 c 31.3369 0 61.4982 -8.6657 90.5024 -25.8331 l -42.4993 -119.671 c -23.1723 14.9987 -44.668 22.498 -64.5053 22.498 c -19.3361 0 -35.6651 -5.33064 -48.9963 -15.8279 c -13.3311 -10.6704 -23.8375 -29.6693 -31.5009 -57.334 c -7.66336 -27.6646 -11.4996 -85.6638 -11.4996 -173.833 l 0 -160.001 Z"
           id="path24" />
      </glyph>
      <glyph
         unicode="l"
         horiz-adv-x="277"
         id="glyph30">
        <path
           d="M 71.9955 0 l 0 716 l 137.002 0 l 0 -716 l -137.002 0 Z"
           id="path28" />
      </glyph>
      <glyph
         unicode="i"
         horiz-adv-x="277"
         id="glyph34">
        <path
           d="M 71.9955 589.003 l 0 126.997 l 137.002 0 l 0 -126.997 l -137.002 0 Z m 0 -589.003 l 0 519.003 l 137.002 0 l 0 -519.003 l -137.002 0 Z"
           id="path32" />
      </glyph>
    </font>
    <style
       type="text/css"
       id="style37"><![CDATA[
    @font-face { font-family:"Arial";src:url("#FontID0") format(svg)}
    .fil5 {fill:white}
    .fil4 {fill:#EFB73A;fill-rule:nonzero}
    .fil2 {fill:#F9C646;fill-rule:nonzero}
    .fil1 {fill:#FCCD47;fill-rule:nonzero}
    .fil3 {fill:#FFDB80;fill-rule:nonzero}
    .fil0 {fill:#FFE8BB;fill-rule:nonzero}
    .fnt0 {font-weight:bold;font-size:1097.43px;font-family:'Arial'}
   ]]></style>
    <style
       type="text/css"
       id="style2-95"><![CDATA[
    .fil2 {fill:#B2725B;fill-rule:nonzero}
    .fil0 {fill:#DDD8A6;fill-rule:nonzero}
    .fil1 {fill:#EFECBD;fill-rule:nonzero}
   ]]></style>
    <style
       type="text/css"
       id="style2-9-3"><![CDATA[
    .fil3 {fill:black;fill-rule:nonzero}
    .fil10 {fill:#99816B;fill-rule:nonzero}
    .fil11 {fill:#AF987E;fill-rule:nonzero}
    .fil6 {fill:#B7A18A;fill-rule:nonzero}
    .fil1 {fill:#BA855A;fill-rule:nonzero}
    .fil7 {fill:#CCBAA3;fill-rule:nonzero}
    .fil9 {fill:#D3C2B2;fill-rule:nonzero}
    .fil0 {fill:#DDC8B1;fill-rule:nonzero}
    .fil8 {fill:#E0CFB8;fill-rule:nonzero}
    .fil4 {fill:#E5D6C6;fill-rule:nonzero}
    .fil5 {fill:#EFE5DC;fill-rule:nonzero}
    .fil2 {fill:white;fill-rule:nonzero}
   ]]></style>
    <style
       type="text/css"
       id="style2-1-9"><![CDATA[
    .str0 {stroke:white;stroke-width:70.56}
    .fil10 {fill:#6A1B13;fill-rule:nonzero}
    .fil2 {fill:#948D78;fill-rule:nonzero}
    .fil4 {fill:#AB9A5C;fill-rule:nonzero}
    .fil7 {fill:#D1C492;fill-rule:nonzero}
    .fil8 {fill:#E6E6E6;fill-rule:nonzero}
    .fil3 {fill:#EAE7E1;fill-rule:nonzero}
    .fil9 {fill:#EFB59E;fill-rule:nonzero}
    .fil1 {fill:#EFEAE1;fill-rule:nonzero}
    .fil5 {fill:#F2F2F2;fill-rule:nonzero}
    .fil6 {fill:#F7F1F0;fill-rule:nonzero}
    .fil0 {fill:white;fill-rule:nonzero}
   ]]></style>
    <style
       type="text/css"
       id="style2-4-5"><![CDATA[
    .fil4 {fill:#C1AA6F;fill-rule:nonzero}
    .fil2 {fill:#CEB880;fill-rule:nonzero}
    .fil5 {fill:#E0B13D;fill-rule:nonzero}
    .fil1 {fill:#E2AF10;fill-rule:nonzero}
    .fil0 {fill:#E5D19A;fill-rule:nonzero}
    .fil3 {fill:#E8D3A0;fill-rule:nonzero}
   ]]></style>
    <style
       type="text/css"
       id="style2-42-3"><![CDATA[
    .fil0 {fill:#628C2C;fill-rule:nonzero}
    .fil1 {fill:#914E1D;fill-rule:nonzero}
    .fil2 {fill:#C18761;fill-rule:nonzero}
    .fil3 {fill:#D1AA8F;fill-rule:nonzero}
   ]]></style>
    <style
       type="text/css"
       id="style2-2-6"><![CDATA[
    .fil1 {fill:#160901;fill-rule:nonzero}
    .fil0 {fill:#331704;fill-rule:nonzero}
    .fil2 {fill:#5B2A08;fill-rule:nonzero}
    .fil7 {fill:#628C2C;fill-rule:nonzero}
    .fil6 {fill:#6D0707;fill-rule:nonzero}
    .fil4 {fill:gray;fill-rule:nonzero}
    .fil8 {fill:#914E1D;fill-rule:nonzero}
    .fil5 {fill:#A01010;fill-rule:nonzero}
    .fil9 {fill:#C18761;fill-rule:nonzero}
    .fil10 {fill:#D1AA8F;fill-rule:nonzero}
    .fil3 {fill:#D1CCC9;fill-rule:nonzero}
   ]]></style>
    <style
       type="text/css"
       id="style2-7-8"><![CDATA[
    .fil3 {fill:black;fill-rule:nonzero}
    .fil10 {fill:#99816B;fill-rule:nonzero}
    .fil11 {fill:#AF987E;fill-rule:nonzero}
    .fil6 {fill:#B7A18A;fill-rule:nonzero}
    .fil1 {fill:#BA855A;fill-rule:nonzero}
    .fil7 {fill:#CCBAA3;fill-rule:nonzero}
    .fil9 {fill:#D3C2B2;fill-rule:nonzero}
    .fil0 {fill:#DDC8B1;fill-rule:nonzero}
    .fil8 {fill:#E0CFB8;fill-rule:nonzero}
    .fil4 {fill:#E5D6C6;fill-rule:nonzero}
    .fil5 {fill:#EFE5DC;fill-rule:nonzero}
    .fil2 {fill:white;fill-rule:nonzero}
   ]]></style>
    <font
       vert-adv-y="90"
       vert-origin-y="90"
       vert-origin-x="45"
       horiz-origin-y="0"
       horiz-origin-x="0"
       horiz-adv-x="722"
       font-weight="700"
       font-variant="normal"
       id="FontID0-8">
      <font-face
         font-family="Arial"
         id="font-face2-3" />
      <missing-glyph
         id="missing-glyph6-3">
        <path
           d="M 0 0 Z"
           id="path4-4" />
      </missing-glyph>
      <glyph
         unicode="D"
         horiz-adv-x="722"
         id="glyph10-6">
        <path
           d="M 72.9993 716.001 l 263.669 0 c 59.4971 0 104.834 -4.50075 136.002 -13.6706 c 41.8309 -12.3311 77.8292 -34.3297 107.666 -65.9956 c 29.9973 -31.5052 52.6618 -70.1672 68.3302 -116.001 c 15.5 -45.6657 23.3304 -102.17 23.3304 -169.168 c 0 -58.9996 -7.33285 -109.664 -21.9985 -152.329 c -17.8346 -52.1719 -43.3312 -94.3396 -76.4974 -126.503 c -24.999 -24.5015 -58.8312 -43.4996 -101.336 -57.1702 c -31.8344 -10.165 -74.3312 -15.1632 -127.667 -15.1632 l -271.499 0 l 0 716.001 Z m 145.004 -121 l 0 -474.002 l 107.497 0 c 40.1699 0 69.1645 2.33457 86.9991 6.83532 c 23.4988 5.8326 42.8336 15.8292 58.1653 29.8289 c 15.5 13.9998 27.9995 37.001 37.667 69.0038 c 9.83581 32.0028 14.6657 75.8315 14.6657 131.165 c 0 55.3332 -4.82988 97.6693 -14.6657 127.337 c -9.66742 29.6605 -23.3304 52.6618 -40.8282 69.3329 c -17.5055 16.4951 -39.6724 27.8311 -66.6692 33.6637 c -20.0008 4.50075 -59.5048 6.83532 -118.168 6.83532 l -64.6638 0 Z"
           id="path8-8" />
      </glyph>
      <glyph
         unicode="A"
         horiz-adv-x="722"
         id="glyph14-4">
        <path
           d="M 717.999 0 l -156.164 0 l -61.8317 162.999 l -287.168 0 l -59.5048 -162.999 l -153.332 0 l 277.998 716.001 l 153.171 0 l 286.831 -716.001 Z m -265.001 283.999 l -99.4986 265.001 l -96.6665 -265.001 l 196.165 0 Z"
           id="path12-9" />
      </glyph>
      <glyph
         unicode="L"
         horiz-adv-x="610"
         id="glyph18-5">
        <path
           d="M 77.0026 0 l 0 710 l 144.996 0 l 0 -589.001 l 359.003 0 l 0 -121 l -503.999 0 Z"
           id="path16-0" />
      </glyph>
      <glyph
         unicode="P"
         horiz-adv-x="666"
         id="glyph22-8">
        <path
           d="M 72.9993 0 l 0 716.001 l 231.834 0 c 87.8334 0 144.996 -3.49803 171.664 -10.6701 c 41.0042 -10.8309 75.3339 -34.1613 103.004 -70.1672 c 27.6628 -35.9983 41.5018 -82.4984 41.5018 -139.5 c 0 -43.9971 -8.00643 -80.8297 -23.8356 -110.827 c -15.9976 -30.005 -36.1667 -53.5038 -60.6682 -70.6724 c -24.5015 -17.0003 -49.5006 -28.3287 -74.8364 -33.8321 c -34.4981 -6.83532 -84.3278 -10.3333 -149.665 -10.3333 l -93.9952 0 l 0 -269.999 l -145.004 0 Z m 145.004 595.002 l 0 -204.003 l 78.8319 0 c 56.8334 0 94.6688 3.83482 113.835 11.3361 c 19.1664 7.50124 34.1613 19.1664 44.9998 35.3324 c 10.8309 15.9976 16.3267 34.4981 16.3267 55.8307 c 0 26.1702 -7.66198 47.6712 -22.8329 64.6714 c -15.3316 17.0003 -34.4981 27.6628 -57.9969 31.9951 c -17.1687 3.16889 -51.6667 4.83754 -103.67 4.83754 l -69.4937 0 Z"
           id="path20-8" />
      </glyph>
    </font>
    <style
       type="text/css"
       id="style25-1"><![CDATA[
    @font-face { font-family:"Arial";src:url("#FontID0") format(svg)}
    .fil5 {fill:#FF6600}
    .fil4 {fill:#EFB73A;fill-rule:nonzero}
    .fil2 {fill:#F9C646;fill-rule:nonzero}
    .fil1 {fill:#FCCD47;fill-rule:nonzero}
    .fil3 {fill:#FFDB80;fill-rule:nonzero}
    .fil0 {fill:#FFE8BB;fill-rule:nonzero}
    .fnt0 {font-weight:bold;font-size:1306.45px;font-family:'Arial'}
   ]]></style>
    <style
       type="text/css"
       id="style2-5-3"><![CDATA[
    .fil0 {fill:#10330B;fill-rule:nonzero}
    .fil1 {fill:#1C4C15;fill-rule:nonzero}
   ]]></style>
    <style
       type="text/css"
       id="style2-8-8"><![CDATA[
    .fil0 {fill:#2B4403;fill-rule:nonzero}
    .fil3 {fill:#2E2923;fill-rule:nonzero}
    .fil1 {fill:#4E7C05;fill-rule:nonzero}
    .fil2 {fill:#6A9615;fill-rule:nonzero}
    .fil4 {fill:#6D645B;fill-rule:nonzero}
   ]]></style>
    <font
       vert-adv-y="90"
       vert-origin-y="90"
       vert-origin-x="45"
       horiz-origin-y="0"
       horiz-origin-x="0"
       horiz-adv-x="722"
       font-weight="700"
       font-variant="normal"
       id="FontID0-2-4">
      <font-face
         font-family="Arial"
         id="font-face2-4-8" />
      <missing-glyph
         id="missing-glyph6-1-1">
        <path
           d="M 0 0 Z"
           id="path4-8-9" />
      </missing-glyph>
      <glyph
         unicode="T"
         horiz-adv-x="610"
         id="glyph10-9-0">
        <path
           d="M 234.001 0 l 0 594.999 l -212.004 0 l 0 121.001 l 568 0 l 0 -121.001 l -210.993 0 l 0 -594.999 l -145.002 0 Z"
           id="path8-2-9" />
      </glyph>
      <glyph
         unicode="s"
         horiz-adv-x="556"
         id="glyph14-6-9">
        <path
           d="M 22.9992 145.996 l 138.004 21.0036 c 5.83181 -26.4983 17.6594 -46.6636 35.6651 -60.3319 c 17.8326 -13.8323 43.0005 -20.6665 75.1665 -20.6665 c 35.5011 0 62.1634 6.497 80.1691 19.5001 c 11.9917 9.16687 17.9966 21.4957 17.9966 36.8315 c 0 10.3332 -3.33506 18.9989 -9.83206 25.8331 c -6.83415 6.497 -22.17 12.666 -45.8344 18.1697 c -110.832 24.4936 -181.005 46.8276 -210.665 67.002 c -41.1689 28.1658 -61.6714 67.166 -61.6714 116.992 c 0 45.1692 17.8326 83.003 53.3337 113.675 c 35.5011 30.6625 90.5024 45.9984 165.004 45.9984 c 71.0023 0 123.835 -11.6727 158.334 -34.8359 c 34.4988 -23.3363 58.3272 -57.662 71.3303 -103.168 l -129.001 -24.0015 c -5.49466 20.3384 -16.165 36.0023 -31.6649 46.8367 c -15.4998 10.8344 -37.6698 16.165 -66.5008 16.165 c -36.3303 0 -62.3365 -4.99348 -78.1644 -15.1627 c -10.4973 -7.1713 -15.6639 -16.5022 -15.6639 -27.8378 c 0 -9.83206 4.49231 -18.1606 13.6592 -24.9948 c 12.5019 -9.16687 55.3384 -22.006 128.673 -38.6722 c 73.3259 -16.6662 124.5 -36.9955 153.495 -61.1611 c 28.831 -24.3387 43.1645 -58.5003 43.1645 -102.166 c 0 -47.5019 -19.8281 -88.5068 -59.6667 -122.668 c -39.6654 -34.1707 -98.4938 -51.3381 -176.494 -51.3381 c -70.6651 0 -126.669 14.3335 -168.002 42.8364 c -41.1689 28.503 -68.1684 67.166 -80.8343 116.162 Z"
           id="path12-7-5" />
      </glyph>
      <glyph
         unicode="b"
         horiz-adv-x="610"
         id="glyph18-6-4">
        <path
           d="M 65.9997 0 l 0 716 l 137.002 0 l 0 -258.331 c 42.3353 48.1671 92.3339 72.3326 150.333 72.3326 c 63.1658 0 115.333 -22.8352 156.666 -68.6695 c 41.3329 -45.8344 61.9994 -111.67 61.9994 -197.498 c 0 -88.6708 -21.0036 -157.003 -63.1658 -204.997 c -42.1713 -47.839 -93.5003 -71.8406 -153.668 -71.8406 c -29.6693 0 -58.8284 7.67247 -87.6685 22.8352 c -28.831 15.3358 -53.6617 37.3327 -74.5013 66.3368 l 0 -76.1689 l -126.997 0 Z m 134.997 269.502 c 0 -53.8349 8.50168 -93.8374 25.505 -119.506 c 23.8284 -36.6584 55.3293 -54.9921 94.8306 -54.9921 c 30.3345 0 56.1676 12.994 77.6633 39.0002 c 21.3408 25.9971 32.002 66.9929 32.002 122.832 c 0 59.4935 -10.8344 102.33 -32.3301 128.664 c -21.5048 26.3343 -49.0054 39.5014 -82.6659 39.5014 c -33.0044 0 -60.3319 -12.8391 -82.1647 -38.499 c -21.8328 -25.6691 -32.8404 -64.6693 -32.8404 -117.001 Z"
           id="path16-6-5" />
      </glyph>
      <glyph
         unicode="u"
         horiz-adv-x="610"
         id="glyph22-3-0">
        <path
           d="M 414.997 0 l 0 77.6633 c -18.9989 -27.6646 -43.8297 -49.6615 -74.6654 -66.1637 c -30.8357 -16.3291 -63.3298 -24.5027 -97.5005 -24.5027 c -35 0 -66.3277 7.67247 -94.0014 22.9992 c -27.8287 15.3358 -47.8299 37.0046 -60.1587 64.6693 c -12.5019 27.8378 -18.6709 66.1637 -18.6709 115.169 l 0 329.169 l 137.002 0 l 0 -239.004 c 0 -73.1618 2.49674 -117.83 7.66336 -134.332 c 5.0026 -16.5022 14.1695 -29.6693 27.6646 -39.1642 c 13.3403 -9.66804 30.3345 -14.5066 51.001 -14.5066 c 23.5004 0 44.504 6.50611 63.1658 19.3361 c 18.6709 12.83 31.3369 28.831 38.171 48.0031 c 6.83415 19.163 10.3332 65.8265 10.3332 140.328 l 0 219.34 l 137.002 0 l 0 -519.003 l -127.006 0 Z"
           id="path20-5-9" />
      </glyph>
      <glyph
         unicode="r"
         horiz-adv-x="389"
         id="glyph26-7">
        <path
           d="M 203.002 0 l -137.002 0 l 0 519.003 l 126.997 0 l 0 -73.6721 c 21.8328 34.8359 41.5061 57.6711 59.0015 68.5055 c 17.5045 10.8253 37.3327 16.165 59.5027 16.165 c 31.3369 0 61.4982 -8.6657 90.5024 -25.8331 l -42.4993 -119.671 c -23.1723 14.9987 -44.668 22.498 -64.5053 22.498 c -19.3361 0 -35.6651 -5.33064 -48.9963 -15.8279 c -13.3311 -10.6704 -23.8375 -29.6693 -31.5009 -57.334 c -7.66336 -27.6646 -11.4996 -85.6638 -11.4996 -173.833 l 0 -160.001 Z"
           id="path24-9" />
      </glyph>
      <glyph
         unicode="l"
         horiz-adv-x="277"
         id="glyph30-1">
        <path
           d="M 71.9955 0 l 0 716 l 137.002 0 l 0 -716 l -137.002 0 Z"
           id="path28-2" />
      </glyph>
      <glyph
         unicode="i"
         horiz-adv-x="277"
         id="glyph34-2">
        <path
           d="M 71.9955 589.003 l 0 126.997 l 137.002 0 l 0 -126.997 l -137.002 0 Z m 0 -589.003 l 0 519.003 l 137.002 0 l 0 -519.003 l -137.002 0 Z"
           id="path32-2" />
      </glyph>
    </font>
    <style
       type="text/css"
       id="style37-4"><![CDATA[
    @font-face { font-family:"Arial";src:url("#FontID0") format(svg)}
    .fil5 {fill:white}
    .fil4 {fill:#EFB73A;fill-rule:nonzero}
    .fil2 {fill:#F9C646;fill-rule:nonzero}
    .fil1 {fill:#FCCD47;fill-rule:nonzero}
    .fil3 {fill:#FFDB80;fill-rule:nonzero}
    .fil0 {fill:#FFE8BB;fill-rule:nonzero}
    .fnt0 {font-weight:bold;font-size:1097.43px;font-family:'Arial'}
   ]]></style>
    <style
       type="text/css"
       id="style2-78"><![CDATA[
    .str0 {stroke:white;stroke-width:70.56}
    .fil6 {fill:#3F2A1B;fill-rule:nonzero}
    .fil1 {fill:#597103;fill-rule:nonzero}
    .fil5 {fill:#938F0A;fill-rule:nonzero}
    .fil2 {fill:#E27F13;fill-rule:nonzero}
    .fil4 {fill:#EAAF47;fill-rule:nonzero}
    .fil3 {fill:#ED9845;fill-rule:nonzero}
    .fil0 {fill:white;fill-rule:nonzero}
   ]]></style>
    <style
       type="text/css"
       id="style2-98"><![CDATA[
    .fil2 {fill:#0E2807;fill-rule:nonzero}
    .fil1 {fill:#2E5E24;fill-rule:nonzero}
    .fil3 {fill:#464940;fill-rule:nonzero}
    .fil0 {fill:#5D9E4D;fill-rule:nonzero}
    .fil4 {fill:#EFB82E;fill-rule:nonzero}
   ]]></style>
    <style
       type="text/css"
       id="style2-48"><![CDATA[
    .fil1 {fill:#8E8530;fill-rule:nonzero}
    .fil0 {fill:#A39C43;fill-rule:nonzero}
    .fil2 {fill:#A89F4A;fill-rule:nonzero}
    .fil3 {fill:#BFB85A;fill-rule:nonzero}
   ]]></style>
    <style
       type="text/css"
       id="style2-4-6"><![CDATA[
    .fil4 {fill:#9C572E;fill-rule:nonzero}
    .fil5 {fill:#AF6E4E;fill-rule:nonzero}
    .fil2 {fill:#B6795C;fill-rule:nonzero}
    .fil6 {fill:#B89479;fill-rule:nonzero}
    .fil3 {fill:#E5AC81;fill-rule:nonzero}
    .fil0 {fill:#EFDBA8;fill-rule:nonzero}
    .fil1 {fill:#F4E7C9;fill-rule:nonzero}
   ]]></style>
    <style
       type="text/css"
       id="style2-1-6"><![CDATA[
    .fil2 {fill:#30561A;fill-rule:nonzero}
    .fil3 {fill:#3C6626;fill-rule:nonzero}
    .fil1 {fill:#4E7A34;fill-rule:nonzero}
    .fil0 {fill:#72915D;fill-rule:nonzero}
    .fil6 {fill:#CE9E63;fill-rule:nonzero}
    .fil5 {fill:#D89E52;fill-rule:nonzero}
    .fil4 {fill:#D8B280;fill-rule:nonzero}
    .fil7 {fill:#E2CFA3;fill-rule:nonzero}
   ]]></style>
    <style
       type="text/css"
       id="style2-93"><![CDATA[
    .fil0 {fill:#6699FF}
    .fil1 {fill:#999999}
    .fil3 {fill:#B3B3B3}
    .fil2 {fill:#E6E6E6}
    .fil4 {fill:#CCCCCC;fill-rule:nonzero}
   ]]></style>
    <style
       type="text/css"
       id="style2-80"><![CDATA[
    .fil2 {fill:#B2725B;fill-rule:nonzero}
    .fil0 {fill:#DDD8A6;fill-rule:nonzero}
    .fil1 {fill:#EFECBD;fill-rule:nonzero}
   ]]></style>
    <style
       type="text/css"
       id="style2-9-0"><![CDATA[
    .fil3 {fill:black;fill-rule:nonzero}
    .fil10 {fill:#99816B;fill-rule:nonzero}
    .fil11 {fill:#AF987E;fill-rule:nonzero}
    .fil6 {fill:#B7A18A;fill-rule:nonzero}
    .fil1 {fill:#BA855A;fill-rule:nonzero}
    .fil7 {fill:#CCBAA3;fill-rule:nonzero}
    .fil9 {fill:#D3C2B2;fill-rule:nonzero}
    .fil0 {fill:#DDC8B1;fill-rule:nonzero}
    .fil8 {fill:#E0CFB8;fill-rule:nonzero}
    .fil4 {fill:#E5D6C6;fill-rule:nonzero}
    .fil5 {fill:#EFE5DC;fill-rule:nonzero}
    .fil2 {fill:white;fill-rule:nonzero}
   ]]></style>
    <style
       type="text/css"
       id="style2-1-67"><![CDATA[
    .str0 {stroke:white;stroke-width:70.56}
    .fil10 {fill:#6A1B13;fill-rule:nonzero}
    .fil2 {fill:#948D78;fill-rule:nonzero}
    .fil4 {fill:#AB9A5C;fill-rule:nonzero}
    .fil7 {fill:#D1C492;fill-rule:nonzero}
    .fil8 {fill:#E6E6E6;fill-rule:nonzero}
    .fil3 {fill:#EAE7E1;fill-rule:nonzero}
    .fil9 {fill:#EFB59E;fill-rule:nonzero}
    .fil1 {fill:#EFEAE1;fill-rule:nonzero}
    .fil5 {fill:#F2F2F2;fill-rule:nonzero}
    .fil6 {fill:#F7F1F0;fill-rule:nonzero}
    .fil0 {fill:white;fill-rule:nonzero}
   ]]></style>
    <style
       type="text/css"
       id="style2-4-9"><![CDATA[
    .fil4 {fill:#C1AA6F;fill-rule:nonzero}
    .fil2 {fill:#CEB880;fill-rule:nonzero}
    .fil5 {fill:#E0B13D;fill-rule:nonzero}
    .fil1 {fill:#E2AF10;fill-rule:nonzero}
    .fil0 {fill:#E5D19A;fill-rule:nonzero}
    .fil3 {fill:#E8D3A0;fill-rule:nonzero}
   ]]></style>
    <style
       type="text/css"
       id="style2-42-9"><![CDATA[
    .fil0 {fill:#628C2C;fill-rule:nonzero}
    .fil1 {fill:#914E1D;fill-rule:nonzero}
    .fil2 {fill:#C18761;fill-rule:nonzero}
    .fil3 {fill:#D1AA8F;fill-rule:nonzero}
   ]]></style>
    <style
       type="text/css"
       id="style2-2-61"><![CDATA[
    .fil1 {fill:#160901;fill-rule:nonzero}
    .fil0 {fill:#331704;fill-rule:nonzero}
    .fil2 {fill:#5B2A08;fill-rule:nonzero}
    .fil7 {fill:#628C2C;fill-rule:nonzero}
    .fil6 {fill:#6D0707;fill-rule:nonzero}
    .fil4 {fill:gray;fill-rule:nonzero}
    .fil8 {fill:#914E1D;fill-rule:nonzero}
    .fil5 {fill:#A01010;fill-rule:nonzero}
    .fil9 {fill:#C18761;fill-rule:nonzero}
    .fil10 {fill:#D1AA8F;fill-rule:nonzero}
    .fil3 {fill:#D1CCC9;fill-rule:nonzero}
   ]]></style>
    <style
       type="text/css"
       id="style2-7-9"><![CDATA[
    .fil3 {fill:black;fill-rule:nonzero}
    .fil10 {fill:#99816B;fill-rule:nonzero}
    .fil11 {fill:#AF987E;fill-rule:nonzero}
    .fil6 {fill:#B7A18A;fill-rule:nonzero}
    .fil1 {fill:#BA855A;fill-rule:nonzero}
    .fil7 {fill:#CCBAA3;fill-rule:nonzero}
    .fil9 {fill:#D3C2B2;fill-rule:nonzero}
    .fil0 {fill:#DDC8B1;fill-rule:nonzero}
    .fil8 {fill:#E0CFB8;fill-rule:nonzero}
    .fil4 {fill:#E5D6C6;fill-rule:nonzero}
    .fil5 {fill:#EFE5DC;fill-rule:nonzero}
    .fil2 {fill:white;fill-rule:nonzero}
   ]]></style>
    <font
       vert-adv-y="90"
       vert-origin-y="90"
       vert-origin-x="45"
       horiz-origin-y="0"
       horiz-origin-x="0"
       horiz-adv-x="722"
       font-weight="700"
       font-variant="normal"
       id="FontID0-6">
      <font-face
         font-family="Arial"
         id="font-face2-42" />
      <missing-glyph
         id="missing-glyph6-8">
        <path
           d="M 0 0 Z"
           id="path4-1" />
      </missing-glyph>
      <glyph
         unicode="D"
         horiz-adv-x="722"
         id="glyph10-7">
        <path
           d="M 72.9993 716.001 l 263.669 0 c 59.4971 0 104.834 -4.50075 136.002 -13.6706 c 41.8309 -12.3311 77.8292 -34.3297 107.666 -65.9956 c 29.9973 -31.5052 52.6618 -70.1672 68.3302 -116.001 c 15.5 -45.6657 23.3304 -102.17 23.3304 -169.168 c 0 -58.9996 -7.33285 -109.664 -21.9985 -152.329 c -17.8346 -52.1719 -43.3312 -94.3396 -76.4974 -126.503 c -24.999 -24.5015 -58.8312 -43.4996 -101.336 -57.1702 c -31.8344 -10.165 -74.3312 -15.1632 -127.667 -15.1632 l -271.499 0 l 0 716.001 Z m 145.004 -121 l 0 -474.002 l 107.497 0 c 40.1699 0 69.1645 2.33457 86.9991 6.83532 c 23.4988 5.8326 42.8336 15.8292 58.1653 29.8289 c 15.5 13.9998 27.9995 37.001 37.667 69.0038 c 9.83581 32.0028 14.6657 75.8315 14.6657 131.165 c 0 55.3332 -4.82988 97.6693 -14.6657 127.337 c -9.66742 29.6605 -23.3304 52.6618 -40.8282 69.3329 c -17.5055 16.4951 -39.6724 27.8311 -66.6692 33.6637 c -20.0008 4.50075 -59.5048 6.83532 -118.168 6.83532 l -64.6638 0 Z"
           id="path8-82" />
      </glyph>
      <glyph
         unicode="A"
         horiz-adv-x="722"
         id="glyph14-2">
        <path
           d="M 717.999 0 l -156.164 0 l -61.8317 162.999 l -287.168 0 l -59.5048 -162.999 l -153.332 0 l 277.998 716.001 l 153.171 0 l 286.831 -716.001 Z m -265.001 283.999 l -99.4986 265.001 l -96.6665 -265.001 l 196.165 0 Z"
           id="path12-6" />
      </glyph>
      <glyph
         unicode="L"
         horiz-adv-x="610"
         id="glyph18-0">
        <path
           d="M 77.0026 0 l 0 710 l 144.996 0 l 0 -589.001 l 359.003 0 l 0 -121 l -503.999 0 Z"
           id="path16-7" />
      </glyph>
      <glyph
         unicode="P"
         horiz-adv-x="666"
         id="glyph22-86">
        <path
           d="M 72.9993 0 l 0 716.001 l 231.834 0 c 87.8334 0 144.996 -3.49803 171.664 -10.6701 c 41.0042 -10.8309 75.3339 -34.1613 103.004 -70.1672 c 27.6628 -35.9983 41.5018 -82.4984 41.5018 -139.5 c 0 -43.9971 -8.00643 -80.8297 -23.8356 -110.827 c -15.9976 -30.005 -36.1667 -53.5038 -60.6682 -70.6724 c -24.5015 -17.0003 -49.5006 -28.3287 -74.8364 -33.8321 c -34.4981 -6.83532 -84.3278 -10.3333 -149.665 -10.3333 l -93.9952 0 l 0 -269.999 l -145.004 0 Z m 145.004 595.002 l 0 -204.003 l 78.8319 0 c 56.8334 0 94.6688 3.83482 113.835 11.3361 c 19.1664 7.50124 34.1613 19.1664 44.9998 35.3324 c 10.8309 15.9976 16.3267 34.4981 16.3267 55.8307 c 0 26.1702 -7.66198 47.6712 -22.8329 64.6714 c -15.3316 17.0003 -34.4981 27.6628 -57.9969 31.9951 c -17.1687 3.16889 -51.6667 4.83754 -103.67 4.83754 l -69.4937 0 Z"
           id="path20-4" />
      </glyph>
    </font>
    <style
       type="text/css"
       id="style25-4"><![CDATA[
    @font-face { font-family:"Arial";src:url("#FontID0") format(svg)}
    .fil5 {fill:#FF6600}
    .fil4 {fill:#EFB73A;fill-rule:nonzero}
    .fil2 {fill:#F9C646;fill-rule:nonzero}
    .fil1 {fill:#FCCD47;fill-rule:nonzero}
    .fil3 {fill:#FFDB80;fill-rule:nonzero}
    .fil0 {fill:#FFE8BB;fill-rule:nonzero}
    .fnt0 {font-weight:bold;font-size:1306.45px;font-family:'Arial'}
   ]]></style>
    <style
       type="text/css"
       id="style2-5-32"><![CDATA[
    .fil0 {fill:#10330B;fill-rule:nonzero}
    .fil1 {fill:#1C4C15;fill-rule:nonzero}
   ]]></style>
    <style
       type="text/css"
       id="style2-8-1"><![CDATA[
    .fil0 {fill:#2B4403;fill-rule:nonzero}
    .fil3 {fill:#2E2923;fill-rule:nonzero}
    .fil1 {fill:#4E7C05;fill-rule:nonzero}
    .fil2 {fill:#6A9615;fill-rule:nonzero}
    .fil4 {fill:#6D645B;fill-rule:nonzero}
   ]]></style>
    <font
       vert-adv-y="90"
       vert-origin-y="90"
       vert-origin-x="45"
       horiz-origin-y="0"
       horiz-origin-x="0"
       horiz-adv-x="722"
       font-weight="700"
       font-variant="normal"
       id="FontID0-2-1">
      <font-face
         font-family="Arial"
         id="font-face2-4-7" />
      <missing-glyph
         id="missing-glyph6-1-16">
        <path
           d="M 0 0 Z"
           id="path4-8-0" />
      </missing-glyph>
      <glyph
         unicode="T"
         horiz-adv-x="610"
         id="glyph10-9-9">
        <path
           d="M 234.001 0 l 0 594.999 l -212.004 0 l 0 121.001 l 568 0 l 0 -121.001 l -210.993 0 l 0 -594.999 l -145.002 0 Z"
           id="path8-2-6" />
      </glyph>
      <glyph
         unicode="s"
         horiz-adv-x="556"
         id="glyph14-6-4">
        <path
           d="M 22.9992 145.996 l 138.004 21.0036 c 5.83181 -26.4983 17.6594 -46.6636 35.6651 -60.3319 c 17.8326 -13.8323 43.0005 -20.6665 75.1665 -20.6665 c 35.5011 0 62.1634 6.497 80.1691 19.5001 c 11.9917 9.16687 17.9966 21.4957 17.9966 36.8315 c 0 10.3332 -3.33506 18.9989 -9.83206 25.8331 c -6.83415 6.497 -22.17 12.666 -45.8344 18.1697 c -110.832 24.4936 -181.005 46.8276 -210.665 67.002 c -41.1689 28.1658 -61.6714 67.166 -61.6714 116.992 c 0 45.1692 17.8326 83.003 53.3337 113.675 c 35.5011 30.6625 90.5024 45.9984 165.004 45.9984 c 71.0023 0 123.835 -11.6727 158.334 -34.8359 c 34.4988 -23.3363 58.3272 -57.662 71.3303 -103.168 l -129.001 -24.0015 c -5.49466 20.3384 -16.165 36.0023 -31.6649 46.8367 c -15.4998 10.8344 -37.6698 16.165 -66.5008 16.165 c -36.3303 0 -62.3365 -4.99348 -78.1644 -15.1627 c -10.4973 -7.1713 -15.6639 -16.5022 -15.6639 -27.8378 c 0 -9.83206 4.49231 -18.1606 13.6592 -24.9948 c 12.5019 -9.16687 55.3384 -22.006 128.673 -38.6722 c 73.3259 -16.6662 124.5 -36.9955 153.495 -61.1611 c 28.831 -24.3387 43.1645 -58.5003 43.1645 -102.166 c 0 -47.5019 -19.8281 -88.5068 -59.6667 -122.668 c -39.6654 -34.1707 -98.4938 -51.3381 -176.494 -51.3381 c -70.6651 0 -126.669 14.3335 -168.002 42.8364 c -41.1689 28.503 -68.1684 67.166 -80.8343 116.162 Z"
           id="path12-7-0" />
      </glyph>
      <glyph
         unicode="b"
         horiz-adv-x="610"
         id="glyph18-6-7">
        <path
           d="M 65.9997 0 l 0 716 l 137.002 0 l 0 -258.331 c 42.3353 48.1671 92.3339 72.3326 150.333 72.3326 c 63.1658 0 115.333 -22.8352 156.666 -68.6695 c 41.3329 -45.8344 61.9994 -111.67 61.9994 -197.498 c 0 -88.6708 -21.0036 -157.003 -63.1658 -204.997 c -42.1713 -47.839 -93.5003 -71.8406 -153.668 -71.8406 c -29.6693 0 -58.8284 7.67247 -87.6685 22.8352 c -28.831 15.3358 -53.6617 37.3327 -74.5013 66.3368 l 0 -76.1689 l -126.997 0 Z m 134.997 269.502 c 0 -53.8349 8.50168 -93.8374 25.505 -119.506 c 23.8284 -36.6584 55.3293 -54.9921 94.8306 -54.9921 c 30.3345 0 56.1676 12.994 77.6633 39.0002 c 21.3408 25.9971 32.002 66.9929 32.002 122.832 c 0 59.4935 -10.8344 102.33 -32.3301 128.664 c -21.5048 26.3343 -49.0054 39.5014 -82.6659 39.5014 c -33.0044 0 -60.3319 -12.8391 -82.1647 -38.499 c -21.8328 -25.6691 -32.8404 -64.6693 -32.8404 -117.001 Z"
           id="path16-6-3" />
      </glyph>
      <glyph
         unicode="u"
         horiz-adv-x="610"
         id="glyph22-3-5">
        <path
           d="M 414.997 0 l 0 77.6633 c -18.9989 -27.6646 -43.8297 -49.6615 -74.6654 -66.1637 c -30.8357 -16.3291 -63.3298 -24.5027 -97.5005 -24.5027 c -35 0 -66.3277 7.67247 -94.0014 22.9992 c -27.8287 15.3358 -47.8299 37.0046 -60.1587 64.6693 c -12.5019 27.8378 -18.6709 66.1637 -18.6709 115.169 l 0 329.169 l 137.002 0 l 0 -239.004 c 0 -73.1618 2.49674 -117.83 7.66336 -134.332 c 5.0026 -16.5022 14.1695 -29.6693 27.6646 -39.1642 c 13.3403 -9.66804 30.3345 -14.5066 51.001 -14.5066 c 23.5004 0 44.504 6.50611 63.1658 19.3361 c 18.6709 12.83 31.3369 28.831 38.171 48.0031 c 6.83415 19.163 10.3332 65.8265 10.3332 140.328 l 0 219.34 l 137.002 0 l 0 -519.003 l -127.006 0 Z"
           id="path20-5-8" />
      </glyph>
      <glyph
         unicode="r"
         horiz-adv-x="389"
         id="glyph26-9">
        <path
           d="M 203.002 0 l -137.002 0 l 0 519.003 l 126.997 0 l 0 -73.6721 c 21.8328 34.8359 41.5061 57.6711 59.0015 68.5055 c 17.5045 10.8253 37.3327 16.165 59.5027 16.165 c 31.3369 0 61.4982 -8.6657 90.5024 -25.8331 l -42.4993 -119.671 c -23.1723 14.9987 -44.668 22.498 -64.5053 22.498 c -19.3361 0 -35.6651 -5.33064 -48.9963 -15.8279 c -13.3311 -10.6704 -23.8375 -29.6693 -31.5009 -57.334 c -7.66336 -27.6646 -11.4996 -85.6638 -11.4996 -173.833 l 0 -160.001 Z"
           id="path24-92" />
      </glyph>
      <glyph
         unicode="l"
         horiz-adv-x="277"
         id="glyph30-7">
        <path
           d="M 71.9955 0 l 0 716 l 137.002 0 l 0 -716 l -137.002 0 Z"
           id="path28-9" />
      </glyph>
      <glyph
         unicode="i"
         horiz-adv-x="277"
         id="glyph34-8">
        <path
           d="M 71.9955 589.003 l 0 126.997 l 137.002 0 l 0 -126.997 l -137.002 0 Z m 0 -589.003 l 0 519.003 l 137.002 0 l 0 -519.003 l -137.002 0 Z"
           id="path32-29" />
      </glyph>
    </font>
    <style
       type="text/css"
       id="style37-9"><![CDATA[
    @font-face { font-family:"Arial";src:url("#FontID0") format(svg)}
    .fil5 {fill:white}
    .fil4 {fill:#EFB73A;fill-rule:nonzero}
    .fil2 {fill:#F9C646;fill-rule:nonzero}
    .fil1 {fill:#FCCD47;fill-rule:nonzero}
    .fil3 {fill:#FFDB80;fill-rule:nonzero}
    .fil0 {fill:#FFE8BB;fill-rule:nonzero}
    .fnt0 {font-weight:bold;font-size:1097.43px;font-family:'Arial'}
   ]]></style>
    <style
       type="text/css"
       id="style2-95-8"><![CDATA[
    .fil2 {fill:#B2725B;fill-rule:nonzero}
    .fil0 {fill:#DDD8A6;fill-rule:nonzero}
    .fil1 {fill:#EFECBD;fill-rule:nonzero}
   ]]></style>
    <style
       type="text/css"
       id="style2-9-3-3"><![CDATA[
    .fil3 {fill:black;fill-rule:nonzero}
    .fil10 {fill:#99816B;fill-rule:nonzero}
    .fil11 {fill:#AF987E;fill-rule:nonzero}
    .fil6 {fill:#B7A18A;fill-rule:nonzero}
    .fil1 {fill:#BA855A;fill-rule:nonzero}
    .fil7 {fill:#CCBAA3;fill-rule:nonzero}
    .fil9 {fill:#D3C2B2;fill-rule:nonzero}
    .fil0 {fill:#DDC8B1;fill-rule:nonzero}
    .fil8 {fill:#E0CFB8;fill-rule:nonzero}
    .fil4 {fill:#E5D6C6;fill-rule:nonzero}
    .fil5 {fill:#EFE5DC;fill-rule:nonzero}
    .fil2 {fill:white;fill-rule:nonzero}
   ]]></style>
    <style
       type="text/css"
       id="style2-1-9-9"><![CDATA[
    .str0 {stroke:white;stroke-width:70.56}
    .fil10 {fill:#6A1B13;fill-rule:nonzero}
    .fil2 {fill:#948D78;fill-rule:nonzero}
    .fil4 {fill:#AB9A5C;fill-rule:nonzero}
    .fil7 {fill:#D1C492;fill-rule:nonzero}
    .fil8 {fill:#E6E6E6;fill-rule:nonzero}
    .fil3 {fill:#EAE7E1;fill-rule:nonzero}
    .fil9 {fill:#EFB59E;fill-rule:nonzero}
    .fil1 {fill:#EFEAE1;fill-rule:nonzero}
    .fil5 {fill:#F2F2F2;fill-rule:nonzero}
    .fil6 {fill:#F7F1F0;fill-rule:nonzero}
    .fil0 {fill:white;fill-rule:nonzero}
   ]]></style>
    <style
       type="text/css"
       id="style2-4-5-6"><![CDATA[
    .fil4 {fill:#C1AA6F;fill-rule:nonzero}
    .fil2 {fill:#CEB880;fill-rule:nonzero}
    .fil5 {fill:#E0B13D;fill-rule:nonzero}
    .fil1 {fill:#E2AF10;fill-rule:nonzero}
    .fil0 {fill:#E5D19A;fill-rule:nonzero}
    .fil3 {fill:#E8D3A0;fill-rule:nonzero}
   ]]></style>
    <style
       type="text/css"
       id="style2-42-3-9"><![CDATA[
    .fil0 {fill:#628C2C;fill-rule:nonzero}
    .fil1 {fill:#914E1D;fill-rule:nonzero}
    .fil2 {fill:#C18761;fill-rule:nonzero}
    .fil3 {fill:#D1AA8F;fill-rule:nonzero}
   ]]></style>
    <style
       type="text/css"
       id="style2-2-6-3"><![CDATA[
    .fil1 {fill:#160901;fill-rule:nonzero}
    .fil0 {fill:#331704;fill-rule:nonzero}
    .fil2 {fill:#5B2A08;fill-rule:nonzero}
    .fil7 {fill:#628C2C;fill-rule:nonzero}
    .fil6 {fill:#6D0707;fill-rule:nonzero}
    .fil4 {fill:gray;fill-rule:nonzero}
    .fil8 {fill:#914E1D;fill-rule:nonzero}
    .fil5 {fill:#A01010;fill-rule:nonzero}
    .fil9 {fill:#C18761;fill-rule:nonzero}
    .fil10 {fill:#D1AA8F;fill-rule:nonzero}
    .fil3 {fill:#D1CCC9;fill-rule:nonzero}
   ]]></style>
    <style
       type="text/css"
       id="style2-7-8-5"><![CDATA[
    .fil3 {fill:black;fill-rule:nonzero}
    .fil10 {fill:#99816B;fill-rule:nonzero}
    .fil11 {fill:#AF987E;fill-rule:nonzero}
    .fil6 {fill:#B7A18A;fill-rule:nonzero}
    .fil1 {fill:#BA855A;fill-rule:nonzero}
    .fil7 {fill:#CCBAA3;fill-rule:nonzero}
    .fil9 {fill:#D3C2B2;fill-rule:nonzero}
    .fil0 {fill:#DDC8B1;fill-rule:nonzero}
    .fil8 {fill:#E0CFB8;fill-rule:nonzero}
    .fil4 {fill:#E5D6C6;fill-rule:nonzero}
    .fil5 {fill:#EFE5DC;fill-rule:nonzero}
    .fil2 {fill:white;fill-rule:nonzero}
   ]]></style>
    <font
       vert-adv-y="90"
       vert-origin-y="90"
       vert-origin-x="45"
       horiz-origin-y="0"
       horiz-origin-x="0"
       horiz-adv-x="722"
       font-weight="700"
       font-variant="normal"
       id="FontID0-8-4">
      <font-face
         font-family="Arial"
         id="font-face2-3-5" />
      <missing-glyph
         id="missing-glyph6-3-6">
        <path
           d="M 0 0 Z"
           id="path4-4-0" />
      </missing-glyph>
      <glyph
         unicode="D"
         horiz-adv-x="722"
         id="glyph10-6-6">
        <path
           d="M 72.9993 716.001 l 263.669 0 c 59.4971 0 104.834 -4.50075 136.002 -13.6706 c 41.8309 -12.3311 77.8292 -34.3297 107.666 -65.9956 c 29.9973 -31.5052 52.6618 -70.1672 68.3302 -116.001 c 15.5 -45.6657 23.3304 -102.17 23.3304 -169.168 c 0 -58.9996 -7.33285 -109.664 -21.9985 -152.329 c -17.8346 -52.1719 -43.3312 -94.3396 -76.4974 -126.503 c -24.999 -24.5015 -58.8312 -43.4996 -101.336 -57.1702 c -31.8344 -10.165 -74.3312 -15.1632 -127.667 -15.1632 l -271.499 0 l 0 716.001 Z m 145.004 -121 l 0 -474.002 l 107.497 0 c 40.1699 0 69.1645 2.33457 86.9991 6.83532 c 23.4988 5.8326 42.8336 15.8292 58.1653 29.8289 c 15.5 13.9998 27.9995 37.001 37.667 69.0038 c 9.83581 32.0028 14.6657 75.8315 14.6657 131.165 c 0 55.3332 -4.82988 97.6693 -14.6657 127.337 c -9.66742 29.6605 -23.3304 52.6618 -40.8282 69.3329 c -17.5055 16.4951 -39.6724 27.8311 -66.6692 33.6637 c -20.0008 4.50075 -59.5048 6.83532 -118.168 6.83532 l -64.6638 0 Z"
           id="path8-8-4" />
      </glyph>
      <glyph
         unicode="A"
         horiz-adv-x="722"
         id="glyph14-4-2">
        <path
           d="M 717.999 0 l -156.164 0 l -61.8317 162.999 l -287.168 0 l -59.5048 -162.999 l -153.332 0 l 277.998 716.001 l 153.171 0 l 286.831 -716.001 Z m -265.001 283.999 l -99.4986 265.001 l -96.6665 -265.001 l 196.165 0 Z"
           id="path12-9-3" />
      </glyph>
      <glyph
         unicode="L"
         horiz-adv-x="610"
         id="glyph18-5-3">
        <path
           d="M 77.0026 0 l 0 710 l 144.996 0 l 0 -589.001 l 359.003 0 l 0 -121 l -503.999 0 Z"
           id="path16-0-4" />
      </glyph>
      <glyph
         unicode="P"
         horiz-adv-x="666"
         id="glyph22-8-9">
        <path
           d="M 72.9993 0 l 0 716.001 l 231.834 0 c 87.8334 0 144.996 -3.49803 171.664 -10.6701 c 41.0042 -10.8309 75.3339 -34.1613 103.004 -70.1672 c 27.6628 -35.9983 41.5018 -82.4984 41.5018 -139.5 c 0 -43.9971 -8.00643 -80.8297 -23.8356 -110.827 c -15.9976 -30.005 -36.1667 -53.5038 -60.6682 -70.6724 c -24.5015 -17.0003 -49.5006 -28.3287 -74.8364 -33.8321 c -34.4981 -6.83532 -84.3278 -10.3333 -149.665 -10.3333 l -93.9952 0 l 0 -269.999 l -145.004 0 Z m 145.004 595.002 l 0 -204.003 l 78.8319 0 c 56.8334 0 94.6688 3.83482 113.835 11.3361 c 19.1664 7.50124 34.1613 19.1664 44.9998 35.3324 c 10.8309 15.9976 16.3267 34.4981 16.3267 55.8307 c 0 26.1702 -7.66198 47.6712 -22.8329 64.6714 c -15.3316 17.0003 -34.4981 27.6628 -57.9969 31.9951 c -17.1687 3.16889 -51.6667 4.83754 -103.67 4.83754 l -69.4937 0 Z"
           id="path20-8-7" />
      </glyph>
    </font>
    <style
       type="text/css"
       id="style25-1-5"><![CDATA[
    @font-face { font-family:"Arial";src:url("#FontID0") format(svg)}
    .fil5 {fill:#FF6600}
    .fil4 {fill:#EFB73A;fill-rule:nonzero}
    .fil2 {fill:#F9C646;fill-rule:nonzero}
    .fil1 {fill:#FCCD47;fill-rule:nonzero}
    .fil3 {fill:#FFDB80;fill-rule:nonzero}
    .fil0 {fill:#FFE8BB;fill-rule:nonzero}
    .fnt0 {font-weight:bold;font-size:1306.45px;font-family:'Arial'}
   ]]></style>
    <style
       type="text/css"
       id="style2-5-3-7"><![CDATA[
    .fil0 {fill:#10330B;fill-rule:nonzero}
    .fil1 {fill:#1C4C15;fill-rule:nonzero}
   ]]></style>
    <style
       type="text/css"
       id="style2-8-8-5"><![CDATA[
    .fil0 {fill:#2B4403;fill-rule:nonzero}
    .fil3 {fill:#2E2923;fill-rule:nonzero}
    .fil1 {fill:#4E7C05;fill-rule:nonzero}
    .fil2 {fill:#6A9615;fill-rule:nonzero}
    .fil4 {fill:#6D645B;fill-rule:nonzero}
   ]]></style>
    <font
       vert-adv-y="90"
       vert-origin-y="90"
       vert-origin-x="45"
       horiz-origin-y="0"
       horiz-origin-x="0"
       horiz-adv-x="722"
       font-weight="700"
       font-variant="normal"
       id="FontID0-2-4-4">
      <font-face
         font-family="Arial"
         id="font-face2-4-8-5" />
      <missing-glyph
         id="missing-glyph6-1-1-0">
        <path
           d="M 0 0 Z"
           id="path4-8-9-7" />
      </missing-glyph>
      <glyph
         unicode="T"
         horiz-adv-x="610"
         id="glyph10-9-0-8">
        <path
           d="M 234.001 0 l 0 594.999 l -212.004 0 l 0 121.001 l 568 0 l 0 -121.001 l -210.993 0 l 0 -594.999 l -145.002 0 Z"
           id="path8-2-9-2" />
      </glyph>
      <glyph
         unicode="s"
         horiz-adv-x="556"
         id="glyph14-6-9-5">
        <path
           d="M 22.9992 145.996 l 138.004 21.0036 c 5.83181 -26.4983 17.6594 -46.6636 35.6651 -60.3319 c 17.8326 -13.8323 43.0005 -20.6665 75.1665 -20.6665 c 35.5011 0 62.1634 6.497 80.1691 19.5001 c 11.9917 9.16687 17.9966 21.4957 17.9966 36.8315 c 0 10.3332 -3.33506 18.9989 -9.83206 25.8331 c -6.83415 6.497 -22.17 12.666 -45.8344 18.1697 c -110.832 24.4936 -181.005 46.8276 -210.665 67.002 c -41.1689 28.1658 -61.6714 67.166 -61.6714 116.992 c 0 45.1692 17.8326 83.003 53.3337 113.675 c 35.5011 30.6625 90.5024 45.9984 165.004 45.9984 c 71.0023 0 123.835 -11.6727 158.334 -34.8359 c 34.4988 -23.3363 58.3272 -57.662 71.3303 -103.168 l -129.001 -24.0015 c -5.49466 20.3384 -16.165 36.0023 -31.6649 46.8367 c -15.4998 10.8344 -37.6698 16.165 -66.5008 16.165 c -36.3303 0 -62.3365 -4.99348 -78.1644 -15.1627 c -10.4973 -7.1713 -15.6639 -16.5022 -15.6639 -27.8378 c 0 -9.83206 4.49231 -18.1606 13.6592 -24.9948 c 12.5019 -9.16687 55.3384 -22.006 128.673 -38.6722 c 73.3259 -16.6662 124.5 -36.9955 153.495 -61.1611 c 28.831 -24.3387 43.1645 -58.5003 43.1645 -102.166 c 0 -47.5019 -19.8281 -88.5068 -59.6667 -122.668 c -39.6654 -34.1707 -98.4938 -51.3381 -176.494 -51.3381 c -70.6651 0 -126.669 14.3335 -168.002 42.8364 c -41.1689 28.503 -68.1684 67.166 -80.8343 116.162 Z"
           id="path12-7-5-9" />
      </glyph>
      <glyph
         unicode="b"
         horiz-adv-x="610"
         id="glyph18-6-4-4">
        <path
           d="M 65.9997 0 l 0 716 l 137.002 0 l 0 -258.331 c 42.3353 48.1671 92.3339 72.3326 150.333 72.3326 c 63.1658 0 115.333 -22.8352 156.666 -68.6695 c 41.3329 -45.8344 61.9994 -111.67 61.9994 -197.498 c 0 -88.6708 -21.0036 -157.003 -63.1658 -204.997 c -42.1713 -47.839 -93.5003 -71.8406 -153.668 -71.8406 c -29.6693 0 -58.8284 7.67247 -87.6685 22.8352 c -28.831 15.3358 -53.6617 37.3327 -74.5013 66.3368 l 0 -76.1689 l -126.997 0 Z m 134.997 269.502 c 0 -53.8349 8.50168 -93.8374 25.505 -119.506 c 23.8284 -36.6584 55.3293 -54.9921 94.8306 -54.9921 c 30.3345 0 56.1676 12.994 77.6633 39.0002 c 21.3408 25.9971 32.002 66.9929 32.002 122.832 c 0 59.4935 -10.8344 102.33 -32.3301 128.664 c -21.5048 26.3343 -49.0054 39.5014 -82.6659 39.5014 c -33.0044 0 -60.3319 -12.8391 -82.1647 -38.499 c -21.8328 -25.6691 -32.8404 -64.6693 -32.8404 -117.001 Z"
           id="path16-6-5-8" />
      </glyph>
      <glyph
         unicode="u"
         horiz-adv-x="610"
         id="glyph22-3-0-9">
        <path
           d="M 414.997 0 l 0 77.6633 c -18.9989 -27.6646 -43.8297 -49.6615 -74.6654 -66.1637 c -30.8357 -16.3291 -63.3298 -24.5027 -97.5005 -24.5027 c -35 0 -66.3277 7.67247 -94.0014 22.9992 c -27.8287 15.3358 -47.8299 37.0046 -60.1587 64.6693 c -12.5019 27.8378 -18.6709 66.1637 -18.6709 115.169 l 0 329.169 l 137.002 0 l 0 -239.004 c 0 -73.1618 2.49674 -117.83 7.66336 -134.332 c 5.0026 -16.5022 14.1695 -29.6693 27.6646 -39.1642 c 13.3403 -9.66804 30.3345 -14.5066 51.001 -14.5066 c 23.5004 0 44.504 6.50611 63.1658 19.3361 c 18.6709 12.83 31.3369 28.831 38.171 48.0031 c 6.83415 19.163 10.3332 65.8265 10.3332 140.328 l 0 219.34 l 137.002 0 l 0 -519.003 l -127.006 0 Z"
           id="path20-5-9-7" />
      </glyph>
      <glyph
         unicode="r"
         horiz-adv-x="389"
         id="glyph26-7-9">
        <path
           d="M 203.002 0 l -137.002 0 l 0 519.003 l 126.997 0 l 0 -73.6721 c 21.8328 34.8359 41.5061 57.6711 59.0015 68.5055 c 17.5045 10.8253 37.3327 16.165 59.5027 16.165 c 31.3369 0 61.4982 -8.6657 90.5024 -25.8331 l -42.4993 -119.671 c -23.1723 14.9987 -44.668 22.498 -64.5053 22.498 c -19.3361 0 -35.6651 -5.33064 -48.9963 -15.8279 c -13.3311 -10.6704 -23.8375 -29.6693 -31.5009 -57.334 c -7.66336 -27.6646 -11.4996 -85.6638 -11.4996 -173.833 l 0 -160.001 Z"
           id="path24-9-9" />
      </glyph>
      <glyph
         unicode="l"
         horiz-adv-x="277"
         id="glyph30-1-8">
        <path
           d="M 71.9955 0 l 0 716 l 137.002 0 l 0 -716 l -137.002 0 Z"
           id="path28-2-8" />
      </glyph>
      <glyph
         unicode="i"
         horiz-adv-x="277"
         id="glyph34-2-2">
        <path
           d="M 71.9955 589.003 l 0 126.997 l 137.002 0 l 0 -126.997 l -137.002 0 Z m 0 -589.003 l 0 519.003 l 137.002 0 l 0 -519.003 l -137.002 0 Z"
           id="path32-2-6" />
      </glyph>
    </font>
    <style
       type="text/css"
       id="style37-4-7"><![CDATA[
    @font-face { font-family:"Arial";src:url("#FontID0") format(svg)}
    .fil5 {fill:white}
    .fil4 {fill:#EFB73A;fill-rule:nonzero}
    .fil2 {fill:#F9C646;fill-rule:nonzero}
    .fil1 {fill:#FCCD47;fill-rule:nonzero}
    .fil3 {fill:#FFDB80;fill-rule:nonzero}
    .fil0 {fill:#FFE8BB;fill-rule:nonzero}
    .fnt0 {font-weight:bold;font-size:1097.43px;font-family:'Arial'}
   ]]></style>
    <style
       type="text/css"
       id="style2-78-3"><![CDATA[
    .str0 {stroke:white;stroke-width:70.56}
    .fil6 {fill:#3F2A1B;fill-rule:nonzero}
    .fil1 {fill:#597103;fill-rule:nonzero}
    .fil5 {fill:#938F0A;fill-rule:nonzero}
    .fil2 {fill:#E27F13;fill-rule:nonzero}
    .fil4 {fill:#EAAF47;fill-rule:nonzero}
    .fil3 {fill:#ED9845;fill-rule:nonzero}
    .fil0 {fill:white;fill-rule:nonzero}
   ]]></style>
    <style
       type="text/css"
       id="style2-98-7"><![CDATA[
    .fil2 {fill:#0E2807;fill-rule:nonzero}
    .fil1 {fill:#2E5E24;fill-rule:nonzero}
    .fil3 {fill:#464940;fill-rule:nonzero}
    .fil0 {fill:#5D9E4D;fill-rule:nonzero}
    .fil4 {fill:#EFB82E;fill-rule:nonzero}
   ]]></style>
    <style
       type="text/css"
       id="style2-48-3"><![CDATA[
    .fil1 {fill:#8E8530;fill-rule:nonzero}
    .fil0 {fill:#A39C43;fill-rule:nonzero}
    .fil2 {fill:#A89F4A;fill-rule:nonzero}
    .fil3 {fill:#BFB85A;fill-rule:nonzero}
   ]]></style>
    <style
       type="text/css"
       id="style2-4-6-5"><![CDATA[
    .fil4 {fill:#9C572E;fill-rule:nonzero}
    .fil5 {fill:#AF6E4E;fill-rule:nonzero}
    .fil2 {fill:#B6795C;fill-rule:nonzero}
    .fil6 {fill:#B89479;fill-rule:nonzero}
    .fil3 {fill:#E5AC81;fill-rule:nonzero}
    .fil0 {fill:#EFDBA8;fill-rule:nonzero}
    .fil1 {fill:#F4E7C9;fill-rule:nonzero}
   ]]></style>
    <style
       type="text/css"
       id="style2-1-6-4"><![CDATA[
    .fil2 {fill:#30561A;fill-rule:nonzero}
    .fil3 {fill:#3C6626;fill-rule:nonzero}
    .fil1 {fill:#4E7A34;fill-rule:nonzero}
    .fil0 {fill:#72915D;fill-rule:nonzero}
    .fil6 {fill:#CE9E63;fill-rule:nonzero}
    .fil5 {fill:#D89E52;fill-rule:nonzero}
    .fil4 {fill:#D8B280;fill-rule:nonzero}
    .fil7 {fill:#E2CFA3;fill-rule:nonzero}
   ]]></style>
    <style
       type="text/css"
       id="style2-93-0"><![CDATA[
    .fil0 {fill:#6699FF}
    .fil1 {fill:#999999}
    .fil3 {fill:#B3B3B3}
    .fil2 {fill:#E6E6E6}
    .fil4 {fill:#CCCCCC;fill-rule:nonzero}
   ]]></style>
    <style
       type="text/css"
       id="style2-28"><![CDATA[
    .fil2 {fill:#B2725B;fill-rule:nonzero}
    .fil0 {fill:#DDD8A6;fill-rule:nonzero}
    .fil1 {fill:#EFECBD;fill-rule:nonzero}
   ]]></style>
    <style
       type="text/css"
       id="style2-9-38"><![CDATA[
    .fil3 {fill:black;fill-rule:nonzero}
    .fil10 {fill:#99816B;fill-rule:nonzero}
    .fil11 {fill:#AF987E;fill-rule:nonzero}
    .fil6 {fill:#B7A18A;fill-rule:nonzero}
    .fil1 {fill:#BA855A;fill-rule:nonzero}
    .fil7 {fill:#CCBAA3;fill-rule:nonzero}
    .fil9 {fill:#D3C2B2;fill-rule:nonzero}
    .fil0 {fill:#DDC8B1;fill-rule:nonzero}
    .fil8 {fill:#E0CFB8;fill-rule:nonzero}
    .fil4 {fill:#E5D6C6;fill-rule:nonzero}
    .fil5 {fill:#EFE5DC;fill-rule:nonzero}
    .fil2 {fill:white;fill-rule:nonzero}
   ]]></style>
    <style
       type="text/css"
       id="style2-1-3"><![CDATA[
    .str0 {stroke:white;stroke-width:70.56}
    .fil10 {fill:#6A1B13;fill-rule:nonzero}
    .fil2 {fill:#948D78;fill-rule:nonzero}
    .fil4 {fill:#AB9A5C;fill-rule:nonzero}
    .fil7 {fill:#D1C492;fill-rule:nonzero}
    .fil8 {fill:#E6E6E6;fill-rule:nonzero}
    .fil3 {fill:#EAE7E1;fill-rule:nonzero}
    .fil9 {fill:#EFB59E;fill-rule:nonzero}
    .fil1 {fill:#EFEAE1;fill-rule:nonzero}
    .fil5 {fill:#F2F2F2;fill-rule:nonzero}
    .fil6 {fill:#F7F1F0;fill-rule:nonzero}
    .fil0 {fill:white;fill-rule:nonzero}
   ]]></style>
    <style
       type="text/css"
       id="style2-4-8"><![CDATA[
    .fil4 {fill:#C1AA6F;fill-rule:nonzero}
    .fil2 {fill:#CEB880;fill-rule:nonzero}
    .fil5 {fill:#E0B13D;fill-rule:nonzero}
    .fil1 {fill:#E2AF10;fill-rule:nonzero}
    .fil0 {fill:#E5D19A;fill-rule:nonzero}
    .fil3 {fill:#E8D3A0;fill-rule:nonzero}
   ]]></style>
    <style
       type="text/css"
       id="style2-42-8"><![CDATA[
    .fil0 {fill:#628C2C;fill-rule:nonzero}
    .fil1 {fill:#914E1D;fill-rule:nonzero}
    .fil2 {fill:#C18761;fill-rule:nonzero}
    .fil3 {fill:#D1AA8F;fill-rule:nonzero}
   ]]></style>
    <style
       type="text/css"
       id="style2-2-3"><![CDATA[
    .fil1 {fill:#160901;fill-rule:nonzero}
    .fil0 {fill:#331704;fill-rule:nonzero}
    .fil2 {fill:#5B2A08;fill-rule:nonzero}
    .fil7 {fill:#628C2C;fill-rule:nonzero}
    .fil6 {fill:#6D0707;fill-rule:nonzero}
    .fil4 {fill:gray;fill-rule:nonzero}
    .fil8 {fill:#914E1D;fill-rule:nonzero}
    .fil5 {fill:#A01010;fill-rule:nonzero}
    .fil9 {fill:#C18761;fill-rule:nonzero}
    .fil10 {fill:#D1AA8F;fill-rule:nonzero}
    .fil3 {fill:#D1CCC9;fill-rule:nonzero}
   ]]></style>
    <style
       type="text/css"
       id="style2-7-2"><![CDATA[
    .fil3 {fill:black;fill-rule:nonzero}
    .fil10 {fill:#99816B;fill-rule:nonzero}
    .fil11 {fill:#AF987E;fill-rule:nonzero}
    .fil6 {fill:#B7A18A;fill-rule:nonzero}
    .fil1 {fill:#BA855A;fill-rule:nonzero}
    .fil7 {fill:#CCBAA3;fill-rule:nonzero}
    .fil9 {fill:#D3C2B2;fill-rule:nonzero}
    .fil0 {fill:#DDC8B1;fill-rule:nonzero}
    .fil8 {fill:#E0CFB8;fill-rule:nonzero}
    .fil4 {fill:#E5D6C6;fill-rule:nonzero}
    .fil5 {fill:#EFE5DC;fill-rule:nonzero}
    .fil2 {fill:white;fill-rule:nonzero}
   ]]></style>
    <font
       vert-adv-y="90"
       vert-origin-y="90"
       vert-origin-x="45"
       horiz-origin-y="0"
       horiz-origin-x="0"
       horiz-adv-x="722"
       font-weight="700"
       font-variant="normal"
       id="FontID0-25">
      <font-face
         font-family="Arial"
         id="font-face2-9" />
      <missing-glyph
         id="missing-glyph6-10">
        <path
           d="M 0 0 Z"
           id="path4-13" />
      </missing-glyph>
      <glyph
         unicode="D"
         horiz-adv-x="722"
         id="glyph10-0">
        <path
           d="M 72.9993 716.001 l 263.669 0 c 59.4971 0 104.834 -4.50075 136.002 -13.6706 c 41.8309 -12.3311 77.8292 -34.3297 107.666 -65.9956 c 29.9973 -31.5052 52.6618 -70.1672 68.3302 -116.001 c 15.5 -45.6657 23.3304 -102.17 23.3304 -169.168 c 0 -58.9996 -7.33285 -109.664 -21.9985 -152.329 c -17.8346 -52.1719 -43.3312 -94.3396 -76.4974 -126.503 c -24.999 -24.5015 -58.8312 -43.4996 -101.336 -57.1702 c -31.8344 -10.165 -74.3312 -15.1632 -127.667 -15.1632 l -271.499 0 l 0 716.001 Z m 145.004 -121 l 0 -474.002 l 107.497 0 c 40.1699 0 69.1645 2.33457 86.9991 6.83532 c 23.4988 5.8326 42.8336 15.8292 58.1653 29.8289 c 15.5 13.9998 27.9995 37.001 37.667 69.0038 c 9.83581 32.0028 14.6657 75.8315 14.6657 131.165 c 0 55.3332 -4.82988 97.6693 -14.6657 127.337 c -9.66742 29.6605 -23.3304 52.6618 -40.8282 69.3329 c -17.5055 16.4951 -39.6724 27.8311 -66.6692 33.6637 c -20.0008 4.50075 -59.5048 6.83532 -118.168 6.83532 l -64.6638 0 Z"
           id="path8-1" />
      </glyph>
      <glyph
         unicode="A"
         horiz-adv-x="722"
         id="glyph14-1">
        <path
           d="M 717.999 0 l -156.164 0 l -61.8317 162.999 l -287.168 0 l -59.5048 -162.999 l -153.332 0 l 277.998 716.001 l 153.171 0 l 286.831 -716.001 Z m -265.001 283.999 l -99.4986 265.001 l -96.6665 -265.001 l 196.165 0 Z"
           id="path12-99" />
      </glyph>
      <glyph
         unicode="L"
         horiz-adv-x="610"
         id="glyph18-9">
        <path
           d="M 77.0026 0 l 0 710 l 144.996 0 l 0 -589.001 l 359.003 0 l 0 -121 l -503.999 0 Z"
           id="path16-9" />
      </glyph>
      <glyph
         unicode="P"
         horiz-adv-x="666"
         id="glyph22-9">
        <path
           d="M 72.9993 0 l 0 716.001 l 231.834 0 c 87.8334 0 144.996 -3.49803 171.664 -10.6701 c 41.0042 -10.8309 75.3339 -34.1613 103.004 -70.1672 c 27.6628 -35.9983 41.5018 -82.4984 41.5018 -139.5 c 0 -43.9971 -8.00643 -80.8297 -23.8356 -110.827 c -15.9976 -30.005 -36.1667 -53.5038 -60.6682 -70.6724 c -24.5015 -17.0003 -49.5006 -28.3287 -74.8364 -33.8321 c -34.4981 -6.83532 -84.3278 -10.3333 -149.665 -10.3333 l -93.9952 0 l 0 -269.999 l -145.004 0 Z m 145.004 595.002 l 0 -204.003 l 78.8319 0 c 56.8334 0 94.6688 3.83482 113.835 11.3361 c 19.1664 7.50124 34.1613 19.1664 44.9998 35.3324 c 10.8309 15.9976 16.3267 34.4981 16.3267 55.8307 c 0 26.1702 -7.66198 47.6712 -22.8329 64.6714 c -15.3316 17.0003 -34.4981 27.6628 -57.9969 31.9951 c -17.1687 3.16889 -51.6667 4.83754 -103.67 4.83754 l -69.4937 0 Z"
           id="path20-87" />
      </glyph>
    </font>
    <style
       type="text/css"
       id="style25-0"><![CDATA[
    @font-face { font-family:"Arial";src:url("#FontID0") format(svg)}
    .fil5 {fill:#FF6600}
    .fil4 {fill:#EFB73A;fill-rule:nonzero}
    .fil2 {fill:#F9C646;fill-rule:nonzero}
    .fil1 {fill:#FCCD47;fill-rule:nonzero}
    .fil3 {fill:#FFDB80;fill-rule:nonzero}
    .fil0 {fill:#FFE8BB;fill-rule:nonzero}
    .fnt0 {font-weight:bold;font-size:1306.45px;font-family:'Arial'}
   ]]></style>
    <style
       type="text/css"
       id="style2-5-2"><![CDATA[
    .fil0 {fill:#10330B;fill-rule:nonzero}
    .fil1 {fill:#1C4C15;fill-rule:nonzero}
   ]]></style>
    <style
       type="text/css"
       id="style2-8-2"><![CDATA[
    .fil0 {fill:#2B4403;fill-rule:nonzero}
    .fil3 {fill:#2E2923;fill-rule:nonzero}
    .fil1 {fill:#4E7C05;fill-rule:nonzero}
    .fil2 {fill:#6A9615;fill-rule:nonzero}
    .fil4 {fill:#6D645B;fill-rule:nonzero}
   ]]></style>
    <font
       vert-adv-y="90"
       vert-origin-y="90"
       vert-origin-x="45"
       horiz-origin-y="0"
       horiz-origin-x="0"
       horiz-adv-x="722"
       font-weight="700"
       font-variant="normal"
       id="FontID0-2-0">
      <font-face
         font-family="Arial"
         id="font-face2-4-80" />
      <missing-glyph
         id="missing-glyph6-1-7">
        <path
           d="M 0 0 Z"
           id="path4-8-5" />
      </missing-glyph>
      <glyph
         unicode="T"
         horiz-adv-x="610"
         id="glyph10-9-3">
        <path
           d="M 234.001 0 l 0 594.999 l -212.004 0 l 0 121.001 l 568 0 l 0 -121.001 l -210.993 0 l 0 -594.999 l -145.002 0 Z"
           id="path8-2-2" />
      </glyph>
      <glyph
         unicode="s"
         horiz-adv-x="556"
         id="glyph14-6-42">
        <path
           d="M 22.9992 145.996 l 138.004 21.0036 c 5.83181 -26.4983 17.6594 -46.6636 35.6651 -60.3319 c 17.8326 -13.8323 43.0005 -20.6665 75.1665 -20.6665 c 35.5011 0 62.1634 6.497 80.1691 19.5001 c 11.9917 9.16687 17.9966 21.4957 17.9966 36.8315 c 0 10.3332 -3.33506 18.9989 -9.83206 25.8331 c -6.83415 6.497 -22.17 12.666 -45.8344 18.1697 c -110.832 24.4936 -181.005 46.8276 -210.665 67.002 c -41.1689 28.1658 -61.6714 67.166 -61.6714 116.992 c 0 45.1692 17.8326 83.003 53.3337 113.675 c 35.5011 30.6625 90.5024 45.9984 165.004 45.9984 c 71.0023 0 123.835 -11.6727 158.334 -34.8359 c 34.4988 -23.3363 58.3272 -57.662 71.3303 -103.168 l -129.001 -24.0015 c -5.49466 20.3384 -16.165 36.0023 -31.6649 46.8367 c -15.4998 10.8344 -37.6698 16.165 -66.5008 16.165 c -36.3303 0 -62.3365 -4.99348 -78.1644 -15.1627 c -10.4973 -7.1713 -15.6639 -16.5022 -15.6639 -27.8378 c 0 -9.83206 4.49231 -18.1606 13.6592 -24.9948 c 12.5019 -9.16687 55.3384 -22.006 128.673 -38.6722 c 73.3259 -16.6662 124.5 -36.9955 153.495 -61.1611 c 28.831 -24.3387 43.1645 -58.5003 43.1645 -102.166 c 0 -47.5019 -19.8281 -88.5068 -59.6667 -122.668 c -39.6654 -34.1707 -98.4938 -51.3381 -176.494 -51.3381 c -70.6651 0 -126.669 14.3335 -168.002 42.8364 c -41.1689 28.503 -68.1684 67.166 -80.8343 116.162 Z"
           id="path12-7-03" />
      </glyph>
      <glyph
         unicode="b"
         horiz-adv-x="610"
         id="glyph18-6-8">
        <path
           d="M 65.9997 0 l 0 716 l 137.002 0 l 0 -258.331 c 42.3353 48.1671 92.3339 72.3326 150.333 72.3326 c 63.1658 0 115.333 -22.8352 156.666 -68.6695 c 41.3329 -45.8344 61.9994 -111.67 61.9994 -197.498 c 0 -88.6708 -21.0036 -157.003 -63.1658 -204.997 c -42.1713 -47.839 -93.5003 -71.8406 -153.668 -71.8406 c -29.6693 0 -58.8284 7.67247 -87.6685 22.8352 c -28.831 15.3358 -53.6617 37.3327 -74.5013 66.3368 l 0 -76.1689 l -126.997 0 Z m 134.997 269.502 c 0 -53.8349 8.50168 -93.8374 25.505 -119.506 c 23.8284 -36.6584 55.3293 -54.9921 94.8306 -54.9921 c 30.3345 0 56.1676 12.994 77.6633 39.0002 c 21.3408 25.9971 32.002 66.9929 32.002 122.832 c 0 59.4935 -10.8344 102.33 -32.3301 128.664 c -21.5048 26.3343 -49.0054 39.5014 -82.6659 39.5014 c -33.0044 0 -60.3319 -12.8391 -82.1647 -38.499 c -21.8328 -25.6691 -32.8404 -64.6693 -32.8404 -117.001 Z"
           id="path16-6-8" />
      </glyph>
      <glyph
         unicode="u"
         horiz-adv-x="610"
         id="glyph22-3-6">
        <path
           d="M 414.997 0 l 0 77.6633 c -18.9989 -27.6646 -43.8297 -49.6615 -74.6654 -66.1637 c -30.8357 -16.3291 -63.3298 -24.5027 -97.5005 -24.5027 c -35 0 -66.3277 7.67247 -94.0014 22.9992 c -27.8287 15.3358 -47.8299 37.0046 -60.1587 64.6693 c -12.5019 27.8378 -18.6709 66.1637 -18.6709 115.169 l 0 329.169 l 137.002 0 l 0 -239.004 c 0 -73.1618 2.49674 -117.83 7.66336 -134.332 c 5.0026 -16.5022 14.1695 -29.6693 27.6646 -39.1642 c 13.3403 -9.66804 30.3345 -14.5066 51.001 -14.5066 c 23.5004 0 44.504 6.50611 63.1658 19.3361 c 18.6709 12.83 31.3369 28.831 38.171 48.0031 c 6.83415 19.163 10.3332 65.8265 10.3332 140.328 l 0 219.34 l 137.002 0 l 0 -519.003 l -127.006 0 Z"
           id="path20-5-3" />
      </glyph>
      <glyph
         unicode="r"
         horiz-adv-x="389"
         id="glyph26-2">
        <path
           d="M 203.002 0 l -137.002 0 l 0 519.003 l 126.997 0 l 0 -73.6721 c 21.8328 34.8359 41.5061 57.6711 59.0015 68.5055 c 17.5045 10.8253 37.3327 16.165 59.5027 16.165 c 31.3369 0 61.4982 -8.6657 90.5024 -25.8331 l -42.4993 -119.671 c -23.1723 14.9987 -44.668 22.498 -64.5053 22.498 c -19.3361 0 -35.6651 -5.33064 -48.9963 -15.8279 c -13.3311 -10.6704 -23.8375 -29.6693 -31.5009 -57.334 c -7.66336 -27.6646 -11.4996 -85.6638 -11.4996 -173.833 l 0 -160.001 Z"
           id="path24-0" />
      </glyph>
      <glyph
         unicode="l"
         horiz-adv-x="277"
         id="glyph30-8">
        <path
           d="M 71.9955 0 l 0 716 l 137.002 0 l 0 -716 l -137.002 0 Z"
           id="path28-6" />
      </glyph>
      <glyph
         unicode="i"
         horiz-adv-x="277"
         id="glyph34-5">
        <path
           d="M 71.9955 589.003 l 0 126.997 l 137.002 0 l 0 -126.997 l -137.002 0 Z m 0 -589.003 l 0 519.003 l 137.002 0 l 0 -519.003 l -137.002 0 Z"
           id="path32-99" />
      </glyph>
    </font>
    <style
       type="text/css"
       id="style37-5"><![CDATA[
    @font-face { font-family:"Arial";src:url("#FontID0") format(svg)}
    .fil5 {fill:white}
    .fil4 {fill:#EFB73A;fill-rule:nonzero}
    .fil2 {fill:#F9C646;fill-rule:nonzero}
    .fil1 {fill:#FCCD47;fill-rule:nonzero}
    .fil3 {fill:#FFDB80;fill-rule:nonzero}
    .fil0 {fill:#FFE8BB;fill-rule:nonzero}
    .fnt0 {font-weight:bold;font-size:1097.43px;font-family:'Arial'}
   ]]></style>
    <style
       type="text/css"
       id="style2-95-0"><![CDATA[
    .fil2 {fill:#B2725B;fill-rule:nonzero}
    .fil0 {fill:#DDD8A6;fill-rule:nonzero}
    .fil1 {fill:#EFECBD;fill-rule:nonzero}
   ]]></style>
    <style
       type="text/css"
       id="style2-9-3-2"><![CDATA[
    .fil3 {fill:black;fill-rule:nonzero}
    .fil10 {fill:#99816B;fill-rule:nonzero}
    .fil11 {fill:#AF987E;fill-rule:nonzero}
    .fil6 {fill:#B7A18A;fill-rule:nonzero}
    .fil1 {fill:#BA855A;fill-rule:nonzero}
    .fil7 {fill:#CCBAA3;fill-rule:nonzero}
    .fil9 {fill:#D3C2B2;fill-rule:nonzero}
    .fil0 {fill:#DDC8B1;fill-rule:nonzero}
    .fil8 {fill:#E0CFB8;fill-rule:nonzero}
    .fil4 {fill:#E5D6C6;fill-rule:nonzero}
    .fil5 {fill:#EFE5DC;fill-rule:nonzero}
    .fil2 {fill:white;fill-rule:nonzero}
   ]]></style>
    <style
       type="text/css"
       id="style2-1-9-0"><![CDATA[
    .str0 {stroke:white;stroke-width:70.56}
    .fil10 {fill:#6A1B13;fill-rule:nonzero}
    .fil2 {fill:#948D78;fill-rule:nonzero}
    .fil4 {fill:#AB9A5C;fill-rule:nonzero}
    .fil7 {fill:#D1C492;fill-rule:nonzero}
    .fil8 {fill:#E6E6E6;fill-rule:nonzero}
    .fil3 {fill:#EAE7E1;fill-rule:nonzero}
    .fil9 {fill:#EFB59E;fill-rule:nonzero}
    .fil1 {fill:#EFEAE1;fill-rule:nonzero}
    .fil5 {fill:#F2F2F2;fill-rule:nonzero}
    .fil6 {fill:#F7F1F0;fill-rule:nonzero}
    .fil0 {fill:white;fill-rule:nonzero}
   ]]></style>
    <style
       type="text/css"
       id="style2-4-5-0"><![CDATA[
    .fil4 {fill:#C1AA6F;fill-rule:nonzero}
    .fil2 {fill:#CEB880;fill-rule:nonzero}
    .fil5 {fill:#E0B13D;fill-rule:nonzero}
    .fil1 {fill:#E2AF10;fill-rule:nonzero}
    .fil0 {fill:#E5D19A;fill-rule:nonzero}
    .fil3 {fill:#E8D3A0;fill-rule:nonzero}
   ]]></style>
    <style
       type="text/css"
       id="style2-42-3-96"><![CDATA[
    .fil0 {fill:#628C2C;fill-rule:nonzero}
    .fil1 {fill:#914E1D;fill-rule:nonzero}
    .fil2 {fill:#C18761;fill-rule:nonzero}
    .fil3 {fill:#D1AA8F;fill-rule:nonzero}
   ]]></style>
    <style
       type="text/css"
       id="style2-2-6-7"><![CDATA[
    .fil1 {fill:#160901;fill-rule:nonzero}
    .fil0 {fill:#331704;fill-rule:nonzero}
    .fil2 {fill:#5B2A08;fill-rule:nonzero}
    .fil7 {fill:#628C2C;fill-rule:nonzero}
    .fil6 {fill:#6D0707;fill-rule:nonzero}
    .fil4 {fill:gray;fill-rule:nonzero}
    .fil8 {fill:#914E1D;fill-rule:nonzero}
    .fil5 {fill:#A01010;fill-rule:nonzero}
    .fil9 {fill:#C18761;fill-rule:nonzero}
    .fil10 {fill:#D1AA8F;fill-rule:nonzero}
    .fil3 {fill:#D1CCC9;fill-rule:nonzero}
   ]]></style>
    <style
       type="text/css"
       id="style2-7-8-3"><![CDATA[
    .fil3 {fill:black;fill-rule:nonzero}
    .fil10 {fill:#99816B;fill-rule:nonzero}
    .fil11 {fill:#AF987E;fill-rule:nonzero}
    .fil6 {fill:#B7A18A;fill-rule:nonzero}
    .fil1 {fill:#BA855A;fill-rule:nonzero}
    .fil7 {fill:#CCBAA3;fill-rule:nonzero}
    .fil9 {fill:#D3C2B2;fill-rule:nonzero}
    .fil0 {fill:#DDC8B1;fill-rule:nonzero}
    .fil8 {fill:#E0CFB8;fill-rule:nonzero}
    .fil4 {fill:#E5D6C6;fill-rule:nonzero}
    .fil5 {fill:#EFE5DC;fill-rule:nonzero}
    .fil2 {fill:white;fill-rule:nonzero}
   ]]></style>
    <font
       vert-adv-y="90"
       vert-origin-y="90"
       vert-origin-x="45"
       horiz-origin-y="0"
       horiz-origin-x="0"
       horiz-adv-x="722"
       font-weight="700"
       font-variant="normal"
       id="FontID0-8-41">
      <font-face
         font-family="Arial"
         id="font-face2-3-0" />
      <missing-glyph
         id="missing-glyph6-3-1">
        <path
           d="M 0 0 Z"
           id="path4-4-8" />
      </missing-glyph>
      <glyph
         unicode="D"
         horiz-adv-x="722"
         id="glyph10-6-62">
        <path
           d="M 72.9993 716.001 l 263.669 0 c 59.4971 0 104.834 -4.50075 136.002 -13.6706 c 41.8309 -12.3311 77.8292 -34.3297 107.666 -65.9956 c 29.9973 -31.5052 52.6618 -70.1672 68.3302 -116.001 c 15.5 -45.6657 23.3304 -102.17 23.3304 -169.168 c 0 -58.9996 -7.33285 -109.664 -21.9985 -152.329 c -17.8346 -52.1719 -43.3312 -94.3396 -76.4974 -126.503 c -24.999 -24.5015 -58.8312 -43.4996 -101.336 -57.1702 c -31.8344 -10.165 -74.3312 -15.1632 -127.667 -15.1632 l -271.499 0 l 0 716.001 Z m 145.004 -121 l 0 -474.002 l 107.497 0 c 40.1699 0 69.1645 2.33457 86.9991 6.83532 c 23.4988 5.8326 42.8336 15.8292 58.1653 29.8289 c 15.5 13.9998 27.9995 37.001 37.667 69.0038 c 9.83581 32.0028 14.6657 75.8315 14.6657 131.165 c 0 55.3332 -4.82988 97.6693 -14.6657 127.337 c -9.66742 29.6605 -23.3304 52.6618 -40.8282 69.3329 c -17.5055 16.4951 -39.6724 27.8311 -66.6692 33.6637 c -20.0008 4.50075 -59.5048 6.83532 -118.168 6.83532 l -64.6638 0 Z"
           id="path8-8-6" />
      </glyph>
      <glyph
         unicode="A"
         horiz-adv-x="722"
         id="glyph14-4-5">
        <path
           d="M 717.999 0 l -156.164 0 l -61.8317 162.999 l -287.168 0 l -59.5048 -162.999 l -153.332 0 l 277.998 716.001 l 153.171 0 l 286.831 -716.001 Z m -265.001 283.999 l -99.4986 265.001 l -96.6665 -265.001 l 196.165 0 Z"
           id="path12-9-9" />
      </glyph>
      <glyph
         unicode="L"
         horiz-adv-x="610"
         id="glyph18-5-8">
        <path
           d="M 77.0026 0 l 0 710 l 144.996 0 l 0 -589.001 l 359.003 0 l 0 -121 l -503.999 0 Z"
           id="path16-0-43" />
      </glyph>
      <glyph
         unicode="P"
         horiz-adv-x="666"
         id="glyph22-8-1">
        <path
           d="M 72.9993 0 l 0 716.001 l 231.834 0 c 87.8334 0 144.996 -3.49803 171.664 -10.6701 c 41.0042 -10.8309 75.3339 -34.1613 103.004 -70.1672 c 27.6628 -35.9983 41.5018 -82.4984 41.5018 -139.5 c 0 -43.9971 -8.00643 -80.8297 -23.8356 -110.827 c -15.9976 -30.005 -36.1667 -53.5038 -60.6682 -70.6724 c -24.5015 -17.0003 -49.5006 -28.3287 -74.8364 -33.8321 c -34.4981 -6.83532 -84.3278 -10.3333 -149.665 -10.3333 l -93.9952 0 l 0 -269.999 l -145.004 0 Z m 145.004 595.002 l 0 -204.003 l 78.8319 0 c 56.8334 0 94.6688 3.83482 113.835 11.3361 c 19.1664 7.50124 34.1613 19.1664 44.9998 35.3324 c 10.8309 15.9976 16.3267 34.4981 16.3267 55.8307 c 0 26.1702 -7.66198 47.6712 -22.8329 64.6714 c -15.3316 17.0003 -34.4981 27.6628 -57.9969 31.9951 c -17.1687 3.16889 -51.6667 4.83754 -103.67 4.83754 l -69.4937 0 Z"
           id="path20-8-2" />
      </glyph>
    </font>
    <style
       type="text/css"
       id="style25-1-3"><![CDATA[
    @font-face { font-family:"Arial";src:url("#FontID0") format(svg)}
    .fil5 {fill:#FF6600}
    .fil4 {fill:#EFB73A;fill-rule:nonzero}
    .fil2 {fill:#F9C646;fill-rule:nonzero}
    .fil1 {fill:#FCCD47;fill-rule:nonzero}
    .fil3 {fill:#FFDB80;fill-rule:nonzero}
    .fil0 {fill:#FFE8BB;fill-rule:nonzero}
    .fnt0 {font-weight:bold;font-size:1306.45px;font-family:'Arial'}
   ]]></style>
    <style
       type="text/css"
       id="style2-5-3-76"><![CDATA[
    .fil0 {fill:#10330B;fill-rule:nonzero}
    .fil1 {fill:#1C4C15;fill-rule:nonzero}
   ]]></style>
    <style
       type="text/css"
       id="style2-8-8-3"><![CDATA[
    .fil0 {fill:#2B4403;fill-rule:nonzero}
    .fil3 {fill:#2E2923;fill-rule:nonzero}
    .fil1 {fill:#4E7C05;fill-rule:nonzero}
    .fil2 {fill:#6A9615;fill-rule:nonzero}
    .fil4 {fill:#6D645B;fill-rule:nonzero}
   ]]></style>
    <font
       vert-adv-y="90"
       vert-origin-y="90"
       vert-origin-x="45"
       horiz-origin-y="0"
       horiz-origin-x="0"
       horiz-adv-x="722"
       font-weight="700"
       font-variant="normal"
       id="FontID0-2-4-7">
      <font-face
         font-family="Arial"
         id="font-face2-4-8-1" />
      <missing-glyph
         id="missing-glyph6-1-1-7">
        <path
           d="M 0 0 Z"
           id="path4-8-9-0" />
      </missing-glyph>
      <glyph
         unicode="T"
         horiz-adv-x="610"
         id="glyph10-9-0-0">
        <path
           d="M 234.001 0 l 0 594.999 l -212.004 0 l 0 121.001 l 568 0 l 0 -121.001 l -210.993 0 l 0 -594.999 l -145.002 0 Z"
           id="path8-2-9-5" />
      </glyph>
      <glyph
         unicode="s"
         horiz-adv-x="556"
         id="glyph14-6-9-53">
        <path
           d="M 22.9992 145.996 l 138.004 21.0036 c 5.83181 -26.4983 17.6594 -46.6636 35.6651 -60.3319 c 17.8326 -13.8323 43.0005 -20.6665 75.1665 -20.6665 c 35.5011 0 62.1634 6.497 80.1691 19.5001 c 11.9917 9.16687 17.9966 21.4957 17.9966 36.8315 c 0 10.3332 -3.33506 18.9989 -9.83206 25.8331 c -6.83415 6.497 -22.17 12.666 -45.8344 18.1697 c -110.832 24.4936 -181.005 46.8276 -210.665 67.002 c -41.1689 28.1658 -61.6714 67.166 -61.6714 116.992 c 0 45.1692 17.8326 83.003 53.3337 113.675 c 35.5011 30.6625 90.5024 45.9984 165.004 45.9984 c 71.0023 0 123.835 -11.6727 158.334 -34.8359 c 34.4988 -23.3363 58.3272 -57.662 71.3303 -103.168 l -129.001 -24.0015 c -5.49466 20.3384 -16.165 36.0023 -31.6649 46.8367 c -15.4998 10.8344 -37.6698 16.165 -66.5008 16.165 c -36.3303 0 -62.3365 -4.99348 -78.1644 -15.1627 c -10.4973 -7.1713 -15.6639 -16.5022 -15.6639 -27.8378 c 0 -9.83206 4.49231 -18.1606 13.6592 -24.9948 c 12.5019 -9.16687 55.3384 -22.006 128.673 -38.6722 c 73.3259 -16.6662 124.5 -36.9955 153.495 -61.1611 c 28.831 -24.3387 43.1645 -58.5003 43.1645 -102.166 c 0 -47.5019 -19.8281 -88.5068 -59.6667 -122.668 c -39.6654 -34.1707 -98.4938 -51.3381 -176.494 -51.3381 c -70.6651 0 -126.669 14.3335 -168.002 42.8364 c -41.1689 28.503 -68.1684 67.166 -80.8343 116.162 Z"
           id="path12-7-5-0" />
      </glyph>
      <glyph
         unicode="b"
         horiz-adv-x="610"
         id="glyph18-6-4-6">
        <path
           d="M 65.9997 0 l 0 716 l 137.002 0 l 0 -258.331 c 42.3353 48.1671 92.3339 72.3326 150.333 72.3326 c 63.1658 0 115.333 -22.8352 156.666 -68.6695 c 41.3329 -45.8344 61.9994 -111.67 61.9994 -197.498 c 0 -88.6708 -21.0036 -157.003 -63.1658 -204.997 c -42.1713 -47.839 -93.5003 -71.8406 -153.668 -71.8406 c -29.6693 0 -58.8284 7.67247 -87.6685 22.8352 c -28.831 15.3358 -53.6617 37.3327 -74.5013 66.3368 l 0 -76.1689 l -126.997 0 Z m 134.997 269.502 c 0 -53.8349 8.50168 -93.8374 25.505 -119.506 c 23.8284 -36.6584 55.3293 -54.9921 94.8306 -54.9921 c 30.3345 0 56.1676 12.994 77.6633 39.0002 c 21.3408 25.9971 32.002 66.9929 32.002 122.832 c 0 59.4935 -10.8344 102.33 -32.3301 128.664 c -21.5048 26.3343 -49.0054 39.5014 -82.6659 39.5014 c -33.0044 0 -60.3319 -12.8391 -82.1647 -38.499 c -21.8328 -25.6691 -32.8404 -64.6693 -32.8404 -117.001 Z"
           id="path16-6-5-5" />
      </glyph>
      <glyph
         unicode="u"
         horiz-adv-x="610"
         id="glyph22-3-0-4">
        <path
           d="M 414.997 0 l 0 77.6633 c -18.9989 -27.6646 -43.8297 -49.6615 -74.6654 -66.1637 c -30.8357 -16.3291 -63.3298 -24.5027 -97.5005 -24.5027 c -35 0 -66.3277 7.67247 -94.0014 22.9992 c -27.8287 15.3358 -47.8299 37.0046 -60.1587 64.6693 c -12.5019 27.8378 -18.6709 66.1637 -18.6709 115.169 l 0 329.169 l 137.002 0 l 0 -239.004 c 0 -73.1618 2.49674 -117.83 7.66336 -134.332 c 5.0026 -16.5022 14.1695 -29.6693 27.6646 -39.1642 c 13.3403 -9.66804 30.3345 -14.5066 51.001 -14.5066 c 23.5004 0 44.504 6.50611 63.1658 19.3361 c 18.6709 12.83 31.3369 28.831 38.171 48.0031 c 6.83415 19.163 10.3332 65.8265 10.3332 140.328 l 0 219.34 l 137.002 0 l 0 -519.003 l -127.006 0 Z"
           id="path20-5-9-5" />
      </glyph>
      <glyph
         unicode="r"
         horiz-adv-x="389"
         id="glyph26-7-8">
        <path
           d="M 203.002 0 l -137.002 0 l 0 519.003 l 126.997 0 l 0 -73.6721 c 21.8328 34.8359 41.5061 57.6711 59.0015 68.5055 c 17.5045 10.8253 37.3327 16.165 59.5027 16.165 c 31.3369 0 61.4982 -8.6657 90.5024 -25.8331 l -42.4993 -119.671 c -23.1723 14.9987 -44.668 22.498 -64.5053 22.498 c -19.3361 0 -35.6651 -5.33064 -48.9963 -15.8279 c -13.3311 -10.6704 -23.8375 -29.6693 -31.5009 -57.334 c -7.66336 -27.6646 -11.4996 -85.6638 -11.4996 -173.833 l 0 -160.001 Z"
           id="path24-9-6" />
      </glyph>
      <glyph
         unicode="l"
         horiz-adv-x="277"
         id="glyph30-1-1">
        <path
           d="M 71.9955 0 l 0 716 l 137.002 0 l 0 -716 l -137.002 0 Z"
           id="path28-2-82" />
      </glyph>
      <glyph
         unicode="i"
         horiz-adv-x="277"
         id="glyph34-2-1">
        <path
           d="M 71.9955 589.003 l 0 126.997 l 137.002 0 l 0 -126.997 l -137.002 0 Z m 0 -589.003 l 0 519.003 l 137.002 0 l 0 -519.003 l -137.002 0 Z"
           id="path32-2-1" />
      </glyph>
    </font>
    <style
       type="text/css"
       id="style37-4-0"><![CDATA[
    @font-face { font-family:"Arial";src:url("#FontID0") format(svg)}
    .fil5 {fill:white}
    .fil4 {fill:#EFB73A;fill-rule:nonzero}
    .fil2 {fill:#F9C646;fill-rule:nonzero}
    .fil1 {fill:#FCCD47;fill-rule:nonzero}
    .fil3 {fill:#FFDB80;fill-rule:nonzero}
    .fil0 {fill:#FFE8BB;fill-rule:nonzero}
    .fnt0 {font-weight:bold;font-size:1097.43px;font-family:'Arial'}
   ]]></style>
    <style
       type="text/css"
       id="style2-78-8"><![CDATA[
    .str0 {stroke:white;stroke-width:70.56}
    .fil6 {fill:#3F2A1B;fill-rule:nonzero}
    .fil1 {fill:#597103;fill-rule:nonzero}
    .fil5 {fill:#938F0A;fill-rule:nonzero}
    .fil2 {fill:#E27F13;fill-rule:nonzero}
    .fil4 {fill:#EAAF47;fill-rule:nonzero}
    .fil3 {fill:#ED9845;fill-rule:nonzero}
    .fil0 {fill:white;fill-rule:nonzero}
   ]]></style>
    <style
       type="text/css"
       id="style2-98-8"><![CDATA[
    .fil2 {fill:#0E2807;fill-rule:nonzero}
    .fil1 {fill:#2E5E24;fill-rule:nonzero}
    .fil3 {fill:#464940;fill-rule:nonzero}
    .fil0 {fill:#5D9E4D;fill-rule:nonzero}
    .fil4 {fill:#EFB82E;fill-rule:nonzero}
   ]]></style>
    <style
       type="text/css"
       id="style2-48-4"><![CDATA[
    .fil1 {fill:#8E8530;fill-rule:nonzero}
    .fil0 {fill:#A39C43;fill-rule:nonzero}
    .fil2 {fill:#A89F4A;fill-rule:nonzero}
    .fil3 {fill:#BFB85A;fill-rule:nonzero}
   ]]></style>
    <style
       type="text/css"
       id="style2-4-6-4"><![CDATA[
    .fil4 {fill:#9C572E;fill-rule:nonzero}
    .fil5 {fill:#AF6E4E;fill-rule:nonzero}
    .fil2 {fill:#B6795C;fill-rule:nonzero}
    .fil6 {fill:#B89479;fill-rule:nonzero}
    .fil3 {fill:#E5AC81;fill-rule:nonzero}
    .fil0 {fill:#EFDBA8;fill-rule:nonzero}
    .fil1 {fill:#F4E7C9;fill-rule:nonzero}
   ]]></style>
    <style
       type="text/css"
       id="style2-1-6-1"><![CDATA[
    .fil2 {fill:#30561A;fill-rule:nonzero}
    .fil3 {fill:#3C6626;fill-rule:nonzero}
    .fil1 {fill:#4E7A34;fill-rule:nonzero}
    .fil0 {fill:#72915D;fill-rule:nonzero}
    .fil6 {fill:#CE9E63;fill-rule:nonzero}
    .fil5 {fill:#D89E52;fill-rule:nonzero}
    .fil4 {fill:#D8B280;fill-rule:nonzero}
    .fil7 {fill:#E2CFA3;fill-rule:nonzero}
   ]]></style>
    <style
       type="text/css"
       id="style2-93-7"><![CDATA[
    .fil0 {fill:#6699FF}
    .fil1 {fill:#999999}
    .fil3 {fill:#B3B3B3}
    .fil2 {fill:#E6E6E6}
    .fil4 {fill:#CCCCCC;fill-rule:nonzero}
   ]]></style>
    <style
       type="text/css"
       id="style2-84"><![CDATA[
    .fil2 {fill:#B2725B;fill-rule:nonzero}
    .fil0 {fill:#DDD8A6;fill-rule:nonzero}
    .fil1 {fill:#EFECBD;fill-rule:nonzero}
   ]]></style>
    <style
       type="text/css"
       id="style2-9-00"><![CDATA[
    .fil3 {fill:black;fill-rule:nonzero}
    .fil10 {fill:#99816B;fill-rule:nonzero}
    .fil11 {fill:#AF987E;fill-rule:nonzero}
    .fil6 {fill:#B7A18A;fill-rule:nonzero}
    .fil1 {fill:#BA855A;fill-rule:nonzero}
    .fil7 {fill:#CCBAA3;fill-rule:nonzero}
    .fil9 {fill:#D3C2B2;fill-rule:nonzero}
    .fil0 {fill:#DDC8B1;fill-rule:nonzero}
    .fil8 {fill:#E0CFB8;fill-rule:nonzero}
    .fil4 {fill:#E5D6C6;fill-rule:nonzero}
    .fil5 {fill:#EFE5DC;fill-rule:nonzero}
    .fil2 {fill:white;fill-rule:nonzero}
   ]]></style>
    <style
       type="text/css"
       id="style2-1-8"><![CDATA[
    .str0 {stroke:white;stroke-width:70.56}
    .fil10 {fill:#6A1B13;fill-rule:nonzero}
    .fil2 {fill:#948D78;fill-rule:nonzero}
    .fil4 {fill:#AB9A5C;fill-rule:nonzero}
    .fil7 {fill:#D1C492;fill-rule:nonzero}
    .fil8 {fill:#E6E6E6;fill-rule:nonzero}
    .fil3 {fill:#EAE7E1;fill-rule:nonzero}
    .fil9 {fill:#EFB59E;fill-rule:nonzero}
    .fil1 {fill:#EFEAE1;fill-rule:nonzero}
    .fil5 {fill:#F2F2F2;fill-rule:nonzero}
    .fil6 {fill:#F7F1F0;fill-rule:nonzero}
    .fil0 {fill:white;fill-rule:nonzero}
   ]]></style>
    <style
       type="text/css"
       id="style2-4-3"><![CDATA[
    .fil4 {fill:#C1AA6F;fill-rule:nonzero}
    .fil2 {fill:#CEB880;fill-rule:nonzero}
    .fil5 {fill:#E0B13D;fill-rule:nonzero}
    .fil1 {fill:#E2AF10;fill-rule:nonzero}
    .fil0 {fill:#E5D19A;fill-rule:nonzero}
    .fil3 {fill:#E8D3A0;fill-rule:nonzero}
   ]]></style>
    <style
       type="text/css"
       id="style2-42-6"><![CDATA[
    .fil0 {fill:#628C2C;fill-rule:nonzero}
    .fil1 {fill:#914E1D;fill-rule:nonzero}
    .fil2 {fill:#C18761;fill-rule:nonzero}
    .fil3 {fill:#D1AA8F;fill-rule:nonzero}
   ]]></style>
    <style
       type="text/css"
       id="style2-2-4"><![CDATA[
    .fil1 {fill:#160901;fill-rule:nonzero}
    .fil0 {fill:#331704;fill-rule:nonzero}
    .fil2 {fill:#5B2A08;fill-rule:nonzero}
    .fil7 {fill:#628C2C;fill-rule:nonzero}
    .fil6 {fill:#6D0707;fill-rule:nonzero}
    .fil4 {fill:gray;fill-rule:nonzero}
    .fil8 {fill:#914E1D;fill-rule:nonzero}
    .fil5 {fill:#A01010;fill-rule:nonzero}
    .fil9 {fill:#C18761;fill-rule:nonzero}
    .fil10 {fill:#D1AA8F;fill-rule:nonzero}
    .fil3 {fill:#D1CCC9;fill-rule:nonzero}
   ]]></style>
    <style
       type="text/css"
       id="style2-7-96"><![CDATA[
    .fil3 {fill:black;fill-rule:nonzero}
    .fil10 {fill:#99816B;fill-rule:nonzero}
    .fil11 {fill:#AF987E;fill-rule:nonzero}
    .fil6 {fill:#B7A18A;fill-rule:nonzero}
    .fil1 {fill:#BA855A;fill-rule:nonzero}
    .fil7 {fill:#CCBAA3;fill-rule:nonzero}
    .fil9 {fill:#D3C2B2;fill-rule:nonzero}
    .fil0 {fill:#DDC8B1;fill-rule:nonzero}
    .fil8 {fill:#E0CFB8;fill-rule:nonzero}
    .fil4 {fill:#E5D6C6;fill-rule:nonzero}
    .fil5 {fill:#EFE5DC;fill-rule:nonzero}
    .fil2 {fill:white;fill-rule:nonzero}
   ]]></style>
    <font
       vert-adv-y="90"
       vert-origin-y="90"
       vert-origin-x="45"
       horiz-origin-y="0"
       horiz-origin-x="0"
       horiz-adv-x="722"
       font-weight="700"
       font-variant="normal"
       id="FontID0-3">
      <font-face
         font-family="Arial"
         id="font-face2-99" />
      <missing-glyph
         id="missing-glyph6-9">
        <path
           d="M 0 0 Z"
           id="path4-42" />
      </missing-glyph>
      <glyph
         unicode="D"
         horiz-adv-x="722"
         id="glyph10-93">
        <path
           d="M 72.9993 716.001 l 263.669 0 c 59.4971 0 104.834 -4.50075 136.002 -13.6706 c 41.8309 -12.3311 77.8292 -34.3297 107.666 -65.9956 c 29.9973 -31.5052 52.6618 -70.1672 68.3302 -116.001 c 15.5 -45.6657 23.3304 -102.17 23.3304 -169.168 c 0 -58.9996 -7.33285 -109.664 -21.9985 -152.329 c -17.8346 -52.1719 -43.3312 -94.3396 -76.4974 -126.503 c -24.999 -24.5015 -58.8312 -43.4996 -101.336 -57.1702 c -31.8344 -10.165 -74.3312 -15.1632 -127.667 -15.1632 l -271.499 0 l 0 716.001 Z m 145.004 -121 l 0 -474.002 l 107.497 0 c 40.1699 0 69.1645 2.33457 86.9991 6.83532 c 23.4988 5.8326 42.8336 15.8292 58.1653 29.8289 c 15.5 13.9998 27.9995 37.001 37.667 69.0038 c 9.83581 32.0028 14.6657 75.8315 14.6657 131.165 c 0 55.3332 -4.82988 97.6693 -14.6657 127.337 c -9.66742 29.6605 -23.3304 52.6618 -40.8282 69.3329 c -17.5055 16.4951 -39.6724 27.8311 -66.6692 33.6637 c -20.0008 4.50075 -59.5048 6.83532 -118.168 6.83532 l -64.6638 0 Z"
           id="path8-7" />
      </glyph>
      <glyph
         unicode="A"
         horiz-adv-x="722"
         id="glyph14-7">
        <path
           d="M 717.999 0 l -156.164 0 l -61.8317 162.999 l -287.168 0 l -59.5048 -162.999 l -153.332 0 l 277.998 716.001 l 153.171 0 l 286.831 -716.001 Z m -265.001 283.999 l -99.4986 265.001 l -96.6665 -265.001 l 196.165 0 Z"
           id="path12-91" />
      </glyph>
      <glyph
         unicode="L"
         horiz-adv-x="610"
         id="glyph18-91">
        <path
           d="M 77.0026 0 l 0 710 l 144.996 0 l 0 -589.001 l 359.003 0 l 0 -121 l -503.999 0 Z"
           id="path16-1" />
      </glyph>
      <glyph
         unicode="P"
         horiz-adv-x="666"
         id="glyph22-6">
        <path
           d="M 72.9993 0 l 0 716.001 l 231.834 0 c 87.8334 0 144.996 -3.49803 171.664 -10.6701 c 41.0042 -10.8309 75.3339 -34.1613 103.004 -70.1672 c 27.6628 -35.9983 41.5018 -82.4984 41.5018 -139.5 c 0 -43.9971 -8.00643 -80.8297 -23.8356 -110.827 c -15.9976 -30.005 -36.1667 -53.5038 -60.6682 -70.6724 c -24.5015 -17.0003 -49.5006 -28.3287 -74.8364 -33.8321 c -34.4981 -6.83532 -84.3278 -10.3333 -149.665 -10.3333 l -93.9952 0 l 0 -269.999 l -145.004 0 Z m 145.004 595.002 l 0 -204.003 l 78.8319 0 c 56.8334 0 94.6688 3.83482 113.835 11.3361 c 19.1664 7.50124 34.1613 19.1664 44.9998 35.3324 c 10.8309 15.9976 16.3267 34.4981 16.3267 55.8307 c 0 26.1702 -7.66198 47.6712 -22.8329 64.6714 c -15.3316 17.0003 -34.4981 27.6628 -57.9969 31.9951 c -17.1687 3.16889 -51.6667 4.83754 -103.67 4.83754 l -69.4937 0 Z"
           id="path20-2" />
      </glyph>
    </font>
    <style
       type="text/css"
       id="style25-2"><![CDATA[
    @font-face { font-family:"Arial";src:url("#FontID0") format(svg)}
    .fil5 {fill:#FF6600}
    .fil4 {fill:#EFB73A;fill-rule:nonzero}
    .fil2 {fill:#F9C646;fill-rule:nonzero}
    .fil1 {fill:#FCCD47;fill-rule:nonzero}
    .fil3 {fill:#FFDB80;fill-rule:nonzero}
    .fil0 {fill:#FFE8BB;fill-rule:nonzero}
    .fnt0 {font-weight:bold;font-size:1306.45px;font-family:'Arial'}
   ]]></style>
    <style
       type="text/css"
       id="style2-5-7"><![CDATA[
    .fil0 {fill:#10330B;fill-rule:nonzero}
    .fil1 {fill:#1C4C15;fill-rule:nonzero}
   ]]></style>
    <style
       type="text/css"
       id="style2-8-86"><![CDATA[
    .fil0 {fill:#2B4403;fill-rule:nonzero}
    .fil3 {fill:#2E2923;fill-rule:nonzero}
    .fil1 {fill:#4E7C05;fill-rule:nonzero}
    .fil2 {fill:#6A9615;fill-rule:nonzero}
    .fil4 {fill:#6D645B;fill-rule:nonzero}
   ]]></style>
    <font
       vert-adv-y="90"
       vert-origin-y="90"
       vert-origin-x="45"
       horiz-origin-y="0"
       horiz-origin-x="0"
       horiz-adv-x="722"
       font-weight="700"
       font-variant="normal"
       id="FontID0-2-3">
      <font-face
         font-family="Arial"
         id="font-face2-4-3" />
      <missing-glyph
         id="missing-glyph6-1-5">
        <path
           d="M 0 0 Z"
           id="path4-8-7" />
      </missing-glyph>
      <glyph
         unicode="T"
         horiz-adv-x="610"
         id="glyph10-9-2">
        <path
           d="M 234.001 0 l 0 594.999 l -212.004 0 l 0 121.001 l 568 0 l 0 -121.001 l -210.993 0 l 0 -594.999 l -145.002 0 Z"
           id="path8-2-5" />
      </glyph>
      <glyph
         unicode="s"
         horiz-adv-x="556"
         id="glyph14-6-0">
        <path
           d="M 22.9992 145.996 l 138.004 21.0036 c 5.83181 -26.4983 17.6594 -46.6636 35.6651 -60.3319 c 17.8326 -13.8323 43.0005 -20.6665 75.1665 -20.6665 c 35.5011 0 62.1634 6.497 80.1691 19.5001 c 11.9917 9.16687 17.9966 21.4957 17.9966 36.8315 c 0 10.3332 -3.33506 18.9989 -9.83206 25.8331 c -6.83415 6.497 -22.17 12.666 -45.8344 18.1697 c -110.832 24.4936 -181.005 46.8276 -210.665 67.002 c -41.1689 28.1658 -61.6714 67.166 -61.6714 116.992 c 0 45.1692 17.8326 83.003 53.3337 113.675 c 35.5011 30.6625 90.5024 45.9984 165.004 45.9984 c 71.0023 0 123.835 -11.6727 158.334 -34.8359 c 34.4988 -23.3363 58.3272 -57.662 71.3303 -103.168 l -129.001 -24.0015 c -5.49466 20.3384 -16.165 36.0023 -31.6649 46.8367 c -15.4998 10.8344 -37.6698 16.165 -66.5008 16.165 c -36.3303 0 -62.3365 -4.99348 -78.1644 -15.1627 c -10.4973 -7.1713 -15.6639 -16.5022 -15.6639 -27.8378 c 0 -9.83206 4.49231 -18.1606 13.6592 -24.9948 c 12.5019 -9.16687 55.3384 -22.006 128.673 -38.6722 c 73.3259 -16.6662 124.5 -36.9955 153.495 -61.1611 c 28.831 -24.3387 43.1645 -58.5003 43.1645 -102.166 c 0 -47.5019 -19.8281 -88.5068 -59.6667 -122.668 c -39.6654 -34.1707 -98.4938 -51.3381 -176.494 -51.3381 c -70.6651 0 -126.669 14.3335 -168.002 42.8364 c -41.1689 28.503 -68.1684 67.166 -80.8343 116.162 Z"
           id="path12-7-7" />
      </glyph>
      <glyph
         unicode="b"
         horiz-adv-x="610"
         id="glyph18-6-5">
        <path
           d="M 65.9997 0 l 0 716 l 137.002 0 l 0 -258.331 c 42.3353 48.1671 92.3339 72.3326 150.333 72.3326 c 63.1658 0 115.333 -22.8352 156.666 -68.6695 c 41.3329 -45.8344 61.9994 -111.67 61.9994 -197.498 c 0 -88.6708 -21.0036 -157.003 -63.1658 -204.997 c -42.1713 -47.839 -93.5003 -71.8406 -153.668 -71.8406 c -29.6693 0 -58.8284 7.67247 -87.6685 22.8352 c -28.831 15.3358 -53.6617 37.3327 -74.5013 66.3368 l 0 -76.1689 l -126.997 0 Z m 134.997 269.502 c 0 -53.8349 8.50168 -93.8374 25.505 -119.506 c 23.8284 -36.6584 55.3293 -54.9921 94.8306 -54.9921 c 30.3345 0 56.1676 12.994 77.6633 39.0002 c 21.3408 25.9971 32.002 66.9929 32.002 122.832 c 0 59.4935 -10.8344 102.33 -32.3301 128.664 c -21.5048 26.3343 -49.0054 39.5014 -82.6659 39.5014 c -33.0044 0 -60.3319 -12.8391 -82.1647 -38.499 c -21.8328 -25.6691 -32.8404 -64.6693 -32.8404 -117.001 Z"
           id="path16-6-36" />
      </glyph>
      <glyph
         unicode="u"
         horiz-adv-x="610"
         id="glyph22-3-7">
        <path
           d="M 414.997 0 l 0 77.6633 c -18.9989 -27.6646 -43.8297 -49.6615 -74.6654 -66.1637 c -30.8357 -16.3291 -63.3298 -24.5027 -97.5005 -24.5027 c -35 0 -66.3277 7.67247 -94.0014 22.9992 c -27.8287 15.3358 -47.8299 37.0046 -60.1587 64.6693 c -12.5019 27.8378 -18.6709 66.1637 -18.6709 115.169 l 0 329.169 l 137.002 0 l 0 -239.004 c 0 -73.1618 2.49674 -117.83 7.66336 -134.332 c 5.0026 -16.5022 14.1695 -29.6693 27.6646 -39.1642 c 13.3403 -9.66804 30.3345 -14.5066 51.001 -14.5066 c 23.5004 0 44.504 6.50611 63.1658 19.3361 c 18.6709 12.83 31.3369 28.831 38.171 48.0031 c 6.83415 19.163 10.3332 65.8265 10.3332 140.328 l 0 219.34 l 137.002 0 l 0 -519.003 l -127.006 0 Z"
           id="path20-5-6" />
      </glyph>
      <glyph
         unicode="r"
         horiz-adv-x="389"
         id="glyph26-5">
        <path
           d="M 203.002 0 l -137.002 0 l 0 519.003 l 126.997 0 l 0 -73.6721 c 21.8328 34.8359 41.5061 57.6711 59.0015 68.5055 c 17.5045 10.8253 37.3327 16.165 59.5027 16.165 c 31.3369 0 61.4982 -8.6657 90.5024 -25.8331 l -42.4993 -119.671 c -23.1723 14.9987 -44.668 22.498 -64.5053 22.498 c -19.3361 0 -35.6651 -5.33064 -48.9963 -15.8279 c -13.3311 -10.6704 -23.8375 -29.6693 -31.5009 -57.334 c -7.66336 -27.6646 -11.4996 -85.6638 -11.4996 -173.833 l 0 -160.001 Z"
           id="path24-7" />
      </glyph>
      <glyph
         unicode="l"
         horiz-adv-x="277"
         id="glyph30-9">
        <path
           d="M 71.9955 0 l 0 716 l 137.002 0 l 0 -716 l -137.002 0 Z"
           id="path28-1" />
      </glyph>
      <glyph
         unicode="i"
         horiz-adv-x="277"
         id="glyph34-3">
        <path
           d="M 71.9955 589.003 l 0 126.997 l 137.002 0 l 0 -126.997 l -137.002 0 Z m 0 -589.003 l 0 519.003 l 137.002 0 l 0 -519.003 l -137.002 0 Z"
           id="path32-299" />
      </glyph>
    </font>
    <style
       type="text/css"
       id="style37-3"><![CDATA[
    @font-face { font-family:"Arial";src:url("#FontID0") format(svg)}
    .fil5 {fill:white}
    .fil4 {fill:#EFB73A;fill-rule:nonzero}
    .fil2 {fill:#F9C646;fill-rule:nonzero}
    .fil1 {fill:#FCCD47;fill-rule:nonzero}
    .fil3 {fill:#FFDB80;fill-rule:nonzero}
    .fil0 {fill:#FFE8BB;fill-rule:nonzero}
    .fnt0 {font-weight:bold;font-size:1097.43px;font-family:'Arial'}
   ]]></style>
    <style
       type="text/css"
       id="style2-95-3"><![CDATA[
    .fil2 {fill:#B2725B;fill-rule:nonzero}
    .fil0 {fill:#DDD8A6;fill-rule:nonzero}
    .fil1 {fill:#EFECBD;fill-rule:nonzero}
   ]]></style>
    <style
       type="text/css"
       id="style2-9-3-39"><![CDATA[
    .fil3 {fill:black;fill-rule:nonzero}
    .fil10 {fill:#99816B;fill-rule:nonzero}
    .fil11 {fill:#AF987E;fill-rule:nonzero}
    .fil6 {fill:#B7A18A;fill-rule:nonzero}
    .fil1 {fill:#BA855A;fill-rule:nonzero}
    .fil7 {fill:#CCBAA3;fill-rule:nonzero}
    .fil9 {fill:#D3C2B2;fill-rule:nonzero}
    .fil0 {fill:#DDC8B1;fill-rule:nonzero}
    .fil8 {fill:#E0CFB8;fill-rule:nonzero}
    .fil4 {fill:#E5D6C6;fill-rule:nonzero}
    .fil5 {fill:#EFE5DC;fill-rule:nonzero}
    .fil2 {fill:white;fill-rule:nonzero}
   ]]></style>
    <style
       type="text/css"
       id="style2-1-9-4"><![CDATA[
    .str0 {stroke:white;stroke-width:70.56}
    .fil10 {fill:#6A1B13;fill-rule:nonzero}
    .fil2 {fill:#948D78;fill-rule:nonzero}
    .fil4 {fill:#AB9A5C;fill-rule:nonzero}
    .fil7 {fill:#D1C492;fill-rule:nonzero}
    .fil8 {fill:#E6E6E6;fill-rule:nonzero}
    .fil3 {fill:#EAE7E1;fill-rule:nonzero}
    .fil9 {fill:#EFB59E;fill-rule:nonzero}
    .fil1 {fill:#EFEAE1;fill-rule:nonzero}
    .fil5 {fill:#F2F2F2;fill-rule:nonzero}
    .fil6 {fill:#F7F1F0;fill-rule:nonzero}
    .fil0 {fill:white;fill-rule:nonzero}
   ]]></style>
    <style
       type="text/css"
       id="style2-4-5-5"><![CDATA[
    .fil4 {fill:#C1AA6F;fill-rule:nonzero}
    .fil2 {fill:#CEB880;fill-rule:nonzero}
    .fil5 {fill:#E0B13D;fill-rule:nonzero}
    .fil1 {fill:#E2AF10;fill-rule:nonzero}
    .fil0 {fill:#E5D19A;fill-rule:nonzero}
    .fil3 {fill:#E8D3A0;fill-rule:nonzero}
   ]]></style>
    <style
       type="text/css"
       id="style2-42-3-3"><![CDATA[
    .fil0 {fill:#628C2C;fill-rule:nonzero}
    .fil1 {fill:#914E1D;fill-rule:nonzero}
    .fil2 {fill:#C18761;fill-rule:nonzero}
    .fil3 {fill:#D1AA8F;fill-rule:nonzero}
   ]]></style>
    <style
       type="text/css"
       id="style2-2-6-4"><![CDATA[
    .fil1 {fill:#160901;fill-rule:nonzero}
    .fil0 {fill:#331704;fill-rule:nonzero}
    .fil2 {fill:#5B2A08;fill-rule:nonzero}
    .fil7 {fill:#628C2C;fill-rule:nonzero}
    .fil6 {fill:#6D0707;fill-rule:nonzero}
    .fil4 {fill:gray;fill-rule:nonzero}
    .fil8 {fill:#914E1D;fill-rule:nonzero}
    .fil5 {fill:#A01010;fill-rule:nonzero}
    .fil9 {fill:#C18761;fill-rule:nonzero}
    .fil10 {fill:#D1AA8F;fill-rule:nonzero}
    .fil3 {fill:#D1CCC9;fill-rule:nonzero}
   ]]></style>
    <style
       type="text/css"
       id="style2-7-8-9"><![CDATA[
    .fil3 {fill:black;fill-rule:nonzero}
    .fil10 {fill:#99816B;fill-rule:nonzero}
    .fil11 {fill:#AF987E;fill-rule:nonzero}
    .fil6 {fill:#B7A18A;fill-rule:nonzero}
    .fil1 {fill:#BA855A;fill-rule:nonzero}
    .fil7 {fill:#CCBAA3;fill-rule:nonzero}
    .fil9 {fill:#D3C2B2;fill-rule:nonzero}
    .fil0 {fill:#DDC8B1;fill-rule:nonzero}
    .fil8 {fill:#E0CFB8;fill-rule:nonzero}
    .fil4 {fill:#E5D6C6;fill-rule:nonzero}
    .fil5 {fill:#EFE5DC;fill-rule:nonzero}
    .fil2 {fill:white;fill-rule:nonzero}
   ]]></style>
    <font
       vert-adv-y="90"
       vert-origin-y="90"
       vert-origin-x="45"
       horiz-origin-y="0"
       horiz-origin-x="0"
       horiz-adv-x="722"
       font-weight="700"
       font-variant="normal"
       id="FontID0-8-7">
      <font-face
         font-family="Arial"
         id="font-face2-3-9" />
      <missing-glyph
         id="missing-glyph6-3-2">
        <path
           d="M 0 0 Z"
           id="path4-4-03" />
      </missing-glyph>
      <glyph
         unicode="D"
         horiz-adv-x="722"
         id="glyph10-6-7">
        <path
           d="M 72.9993 716.001 l 263.669 0 c 59.4971 0 104.834 -4.50075 136.002 -13.6706 c 41.8309 -12.3311 77.8292 -34.3297 107.666 -65.9956 c 29.9973 -31.5052 52.6618 -70.1672 68.3302 -116.001 c 15.5 -45.6657 23.3304 -102.17 23.3304 -169.168 c 0 -58.9996 -7.33285 -109.664 -21.9985 -152.329 c -17.8346 -52.1719 -43.3312 -94.3396 -76.4974 -126.503 c -24.999 -24.5015 -58.8312 -43.4996 -101.336 -57.1702 c -31.8344 -10.165 -74.3312 -15.1632 -127.667 -15.1632 l -271.499 0 l 0 716.001 Z m 145.004 -121 l 0 -474.002 l 107.497 0 c 40.1699 0 69.1645 2.33457 86.9991 6.83532 c 23.4988 5.8326 42.8336 15.8292 58.1653 29.8289 c 15.5 13.9998 27.9995 37.001 37.667 69.0038 c 9.83581 32.0028 14.6657 75.8315 14.6657 131.165 c 0 55.3332 -4.82988 97.6693 -14.6657 127.337 c -9.66742 29.6605 -23.3304 52.6618 -40.8282 69.3329 c -17.5055 16.4951 -39.6724 27.8311 -66.6692 33.6637 c -20.0008 4.50075 -59.5048 6.83532 -118.168 6.83532 l -64.6638 0 Z"
           id="path8-8-60" />
      </glyph>
      <glyph
         unicode="A"
         horiz-adv-x="722"
         id="glyph14-4-8">
        <path
           d="M 717.999 0 l -156.164 0 l -61.8317 162.999 l -287.168 0 l -59.5048 -162.999 l -153.332 0 l 277.998 716.001 l 153.171 0 l 286.831 -716.001 Z m -265.001 283.999 l -99.4986 265.001 l -96.6665 -265.001 l 196.165 0 Z"
           id="path12-9-4" />
      </glyph>
      <glyph
         unicode="L"
         horiz-adv-x="610"
         id="glyph18-5-6">
        <path
           d="M 77.0026 0 l 0 710 l 144.996 0 l 0 -589.001 l 359.003 0 l 0 -121 l -503.999 0 Z"
           id="path16-0-3" />
      </glyph>
      <glyph
         unicode="P"
         horiz-adv-x="666"
         id="glyph22-8-0">
        <path
           d="M 72.9993 0 l 0 716.001 l 231.834 0 c 87.8334 0 144.996 -3.49803 171.664 -10.6701 c 41.0042 -10.8309 75.3339 -34.1613 103.004 -70.1672 c 27.6628 -35.9983 41.5018 -82.4984 41.5018 -139.5 c 0 -43.9971 -8.00643 -80.8297 -23.8356 -110.827 c -15.9976 -30.005 -36.1667 -53.5038 -60.6682 -70.6724 c -24.5015 -17.0003 -49.5006 -28.3287 -74.8364 -33.8321 c -34.4981 -6.83532 -84.3278 -10.3333 -149.665 -10.3333 l -93.9952 0 l 0 -269.999 l -145.004 0 Z m 145.004 595.002 l 0 -204.003 l 78.8319 0 c 56.8334 0 94.6688 3.83482 113.835 11.3361 c 19.1664 7.50124 34.1613 19.1664 44.9998 35.3324 c 10.8309 15.9976 16.3267 34.4981 16.3267 55.8307 c 0 26.1702 -7.66198 47.6712 -22.8329 64.6714 c -15.3316 17.0003 -34.4981 27.6628 -57.9969 31.9951 c -17.1687 3.16889 -51.6667 4.83754 -103.67 4.83754 l -69.4937 0 Z"
           id="path20-8-1" />
      </glyph>
    </font>
    <style
       type="text/css"
       id="style25-1-4"><![CDATA[
    @font-face { font-family:"Arial";src:url("#FontID0") format(svg)}
    .fil5 {fill:#FF6600}
    .fil4 {fill:#EFB73A;fill-rule:nonzero}
    .fil2 {fill:#F9C646;fill-rule:nonzero}
    .fil1 {fill:#FCCD47;fill-rule:nonzero}
    .fil3 {fill:#FFDB80;fill-rule:nonzero}
    .fil0 {fill:#FFE8BB;fill-rule:nonzero}
    .fnt0 {font-weight:bold;font-size:1306.45px;font-family:'Arial'}
   ]]></style>
    <style
       type="text/css"
       id="style2-5-3-5"><![CDATA[
    .fil0 {fill:#10330B;fill-rule:nonzero}
    .fil1 {fill:#1C4C15;fill-rule:nonzero}
   ]]></style>
    <style
       type="text/css"
       id="style2-8-8-2"><![CDATA[
    .fil0 {fill:#2B4403;fill-rule:nonzero}
    .fil3 {fill:#2E2923;fill-rule:nonzero}
    .fil1 {fill:#4E7C05;fill-rule:nonzero}
    .fil2 {fill:#6A9615;fill-rule:nonzero}
    .fil4 {fill:#6D645B;fill-rule:nonzero}
   ]]></style>
    <font
       vert-adv-y="90"
       vert-origin-y="90"
       vert-origin-x="45"
       horiz-origin-y="0"
       horiz-origin-x="0"
       horiz-adv-x="722"
       font-weight="700"
       font-variant="normal"
       id="FontID0-2-4-48">
      <font-face
         font-family="Arial"
         id="font-face2-4-8-6" />
      <missing-glyph
         id="missing-glyph6-1-1-01">
        <path
           d="M 0 0 Z"
           id="path4-8-9-9" />
      </missing-glyph>
      <glyph
         unicode="T"
         horiz-adv-x="610"
         id="glyph10-9-0-1">
        <path
           d="M 234.001 0 l 0 594.999 l -212.004 0 l 0 121.001 l 568 0 l 0 -121.001 l -210.993 0 l 0 -594.999 l -145.002 0 Z"
           id="path8-2-9-54" />
      </glyph>
      <glyph
         unicode="s"
         horiz-adv-x="556"
         id="glyph14-6-9-9">
        <path
           d="M 22.9992 145.996 l 138.004 21.0036 c 5.83181 -26.4983 17.6594 -46.6636 35.6651 -60.3319 c 17.8326 -13.8323 43.0005 -20.6665 75.1665 -20.6665 c 35.5011 0 62.1634 6.497 80.1691 19.5001 c 11.9917 9.16687 17.9966 21.4957 17.9966 36.8315 c 0 10.3332 -3.33506 18.9989 -9.83206 25.8331 c -6.83415 6.497 -22.17 12.666 -45.8344 18.1697 c -110.832 24.4936 -181.005 46.8276 -210.665 67.002 c -41.1689 28.1658 -61.6714 67.166 -61.6714 116.992 c 0 45.1692 17.8326 83.003 53.3337 113.675 c 35.5011 30.6625 90.5024 45.9984 165.004 45.9984 c 71.0023 0 123.835 -11.6727 158.334 -34.8359 c 34.4988 -23.3363 58.3272 -57.662 71.3303 -103.168 l -129.001 -24.0015 c -5.49466 20.3384 -16.165 36.0023 -31.6649 46.8367 c -15.4998 10.8344 -37.6698 16.165 -66.5008 16.165 c -36.3303 0 -62.3365 -4.99348 -78.1644 -15.1627 c -10.4973 -7.1713 -15.6639 -16.5022 -15.6639 -27.8378 c 0 -9.83206 4.49231 -18.1606 13.6592 -24.9948 c 12.5019 -9.16687 55.3384 -22.006 128.673 -38.6722 c 73.3259 -16.6662 124.5 -36.9955 153.495 -61.1611 c 28.831 -24.3387 43.1645 -58.5003 43.1645 -102.166 c 0 -47.5019 -19.8281 -88.5068 -59.6667 -122.668 c -39.6654 -34.1707 -98.4938 -51.3381 -176.494 -51.3381 c -70.6651 0 -126.669 14.3335 -168.002 42.8364 c -41.1689 28.503 -68.1684 67.166 -80.8343 116.162 Z"
           id="path12-7-5-92" />
      </glyph>
      <glyph
         unicode="b"
         horiz-adv-x="610"
         id="glyph18-6-4-44">
        <path
           d="M 65.9997 0 l 0 716 l 137.002 0 l 0 -258.331 c 42.3353 48.1671 92.3339 72.3326 150.333 72.3326 c 63.1658 0 115.333 -22.8352 156.666 -68.6695 c 41.3329 -45.8344 61.9994 -111.67 61.9994 -197.498 c 0 -88.6708 -21.0036 -157.003 -63.1658 -204.997 c -42.1713 -47.839 -93.5003 -71.8406 -153.668 -71.8406 c -29.6693 0 -58.8284 7.67247 -87.6685 22.8352 c -28.831 15.3358 -53.6617 37.3327 -74.5013 66.3368 l 0 -76.1689 l -126.997 0 Z m 134.997 269.502 c 0 -53.8349 8.50168 -93.8374 25.505 -119.506 c 23.8284 -36.6584 55.3293 -54.9921 94.8306 -54.9921 c 30.3345 0 56.1676 12.994 77.6633 39.0002 c 21.3408 25.9971 32.002 66.9929 32.002 122.832 c 0 59.4935 -10.8344 102.33 -32.3301 128.664 c -21.5048 26.3343 -49.0054 39.5014 -82.6659 39.5014 c -33.0044 0 -60.3319 -12.8391 -82.1647 -38.499 c -21.8328 -25.6691 -32.8404 -64.6693 -32.8404 -117.001 Z"
           id="path16-6-5-3" />
      </glyph>
      <glyph
         unicode="u"
         horiz-adv-x="610"
         id="glyph22-3-0-8">
        <path
           d="M 414.997 0 l 0 77.6633 c -18.9989 -27.6646 -43.8297 -49.6615 -74.6654 -66.1637 c -30.8357 -16.3291 -63.3298 -24.5027 -97.5005 -24.5027 c -35 0 -66.3277 7.67247 -94.0014 22.9992 c -27.8287 15.3358 -47.8299 37.0046 -60.1587 64.6693 c -12.5019 27.8378 -18.6709 66.1637 -18.6709 115.169 l 0 329.169 l 137.002 0 l 0 -239.004 c 0 -73.1618 2.49674 -117.83 7.66336 -134.332 c 5.0026 -16.5022 14.1695 -29.6693 27.6646 -39.1642 c 13.3403 -9.66804 30.3345 -14.5066 51.001 -14.5066 c 23.5004 0 44.504 6.50611 63.1658 19.3361 c 18.6709 12.83 31.3369 28.831 38.171 48.0031 c 6.83415 19.163 10.3332 65.8265 10.3332 140.328 l 0 219.34 l 137.002 0 l 0 -519.003 l -127.006 0 Z"
           id="path20-5-9-4" />
      </glyph>
      <glyph
         unicode="r"
         horiz-adv-x="389"
         id="glyph26-7-5">
        <path
           d="M 203.002 0 l -137.002 0 l 0 519.003 l 126.997 0 l 0 -73.6721 c 21.8328 34.8359 41.5061 57.6711 59.0015 68.5055 c 17.5045 10.8253 37.3327 16.165 59.5027 16.165 c 31.3369 0 61.4982 -8.6657 90.5024 -25.8331 l -42.4993 -119.671 c -23.1723 14.9987 -44.668 22.498 -64.5053 22.498 c -19.3361 0 -35.6651 -5.33064 -48.9963 -15.8279 c -13.3311 -10.6704 -23.8375 -29.6693 -31.5009 -57.334 c -7.66336 -27.6646 -11.4996 -85.6638 -11.4996 -173.833 l 0 -160.001 Z"
           id="path24-9-1" />
      </glyph>
      <glyph
         unicode="l"
         horiz-adv-x="277"
         id="glyph30-1-0">
        <path
           d="M 71.9955 0 l 0 716 l 137.002 0 l 0 -716 l -137.002 0 Z"
           id="path28-2-5" />
      </glyph>
      <glyph
         unicode="i"
         horiz-adv-x="277"
         id="glyph34-2-6">
        <path
           d="M 71.9955 589.003 l 0 126.997 l 137.002 0 l 0 -126.997 l -137.002 0 Z m 0 -589.003 l 0 519.003 l 137.002 0 l 0 -519.003 l -137.002 0 Z"
           id="path32-2-9" />
      </glyph>
    </font>
    <style
       type="text/css"
       id="style37-4-3"><![CDATA[
    @font-face { font-family:"Arial";src:url("#FontID0") format(svg)}
    .fil5 {fill:white}
    .fil4 {fill:#EFB73A;fill-rule:nonzero}
    .fil2 {fill:#F9C646;fill-rule:nonzero}
    .fil1 {fill:#FCCD47;fill-rule:nonzero}
    .fil3 {fill:#FFDB80;fill-rule:nonzero}
    .fil0 {fill:#FFE8BB;fill-rule:nonzero}
    .fnt0 {font-weight:bold;font-size:1097.43px;font-family:'Arial'}
   ]]></style>
    <style
       type="text/css"
       id="style2-78-7"><![CDATA[
    .str0 {stroke:white;stroke-width:70.56}
    .fil6 {fill:#3F2A1B;fill-rule:nonzero}
    .fil1 {fill:#597103;fill-rule:nonzero}
    .fil5 {fill:#938F0A;fill-rule:nonzero}
    .fil2 {fill:#E27F13;fill-rule:nonzero}
    .fil4 {fill:#EAAF47;fill-rule:nonzero}
    .fil3 {fill:#ED9845;fill-rule:nonzero}
    .fil0 {fill:white;fill-rule:nonzero}
   ]]></style>
    <style
       type="text/css"
       id="style2-98-9"><![CDATA[
    .fil2 {fill:#0E2807;fill-rule:nonzero}
    .fil1 {fill:#2E5E24;fill-rule:nonzero}
    .fil3 {fill:#464940;fill-rule:nonzero}
    .fil0 {fill:#5D9E4D;fill-rule:nonzero}
    .fil4 {fill:#EFB82E;fill-rule:nonzero}
   ]]></style>
    <style
       type="text/css"
       id="style2-48-1"><![CDATA[
    .fil1 {fill:#8E8530;fill-rule:nonzero}
    .fil0 {fill:#A39C43;fill-rule:nonzero}
    .fil2 {fill:#A89F4A;fill-rule:nonzero}
    .fil3 {fill:#BFB85A;fill-rule:nonzero}
   ]]></style>
    <style
       type="text/css"
       id="style2-4-6-1"><![CDATA[
    .fil4 {fill:#9C572E;fill-rule:nonzero}
    .fil5 {fill:#AF6E4E;fill-rule:nonzero}
    .fil2 {fill:#B6795C;fill-rule:nonzero}
    .fil6 {fill:#B89479;fill-rule:nonzero}
    .fil3 {fill:#E5AC81;fill-rule:nonzero}
    .fil0 {fill:#EFDBA8;fill-rule:nonzero}
    .fil1 {fill:#F4E7C9;fill-rule:nonzero}
   ]]></style>
    <style
       type="text/css"
       id="style2-1-6-2"><![CDATA[
    .fil2 {fill:#30561A;fill-rule:nonzero}
    .fil3 {fill:#3C6626;fill-rule:nonzero}
    .fil1 {fill:#4E7A34;fill-rule:nonzero}
    .fil0 {fill:#72915D;fill-rule:nonzero}
    .fil6 {fill:#CE9E63;fill-rule:nonzero}
    .fil5 {fill:#D89E52;fill-rule:nonzero}
    .fil4 {fill:#D8B280;fill-rule:nonzero}
    .fil7 {fill:#E2CFA3;fill-rule:nonzero}
   ]]></style>
    <style
       type="text/css"
       id="style2-93-4"><![CDATA[
    .fil0 {fill:#6699FF}
    .fil1 {fill:#999999}
    .fil3 {fill:#B3B3B3}
    .fil2 {fill:#E6E6E6}
    .fil4 {fill:#CCCCCC;fill-rule:nonzero}
   ]]></style>
    <style
       type="text/css"
       id="style2-72"><![CDATA[
    .fil2 {fill:#B2725B;fill-rule:nonzero}
    .fil0 {fill:#DDD8A6;fill-rule:nonzero}
    .fil1 {fill:#EFECBD;fill-rule:nonzero}
   ]]></style>
    <style
       type="text/css"
       id="style2-9-9"><![CDATA[
    .fil3 {fill:black;fill-rule:nonzero}
    .fil10 {fill:#99816B;fill-rule:nonzero}
    .fil11 {fill:#AF987E;fill-rule:nonzero}
    .fil6 {fill:#B7A18A;fill-rule:nonzero}
    .fil1 {fill:#BA855A;fill-rule:nonzero}
    .fil7 {fill:#CCBAA3;fill-rule:nonzero}
    .fil9 {fill:#D3C2B2;fill-rule:nonzero}
    .fil0 {fill:#DDC8B1;fill-rule:nonzero}
    .fil8 {fill:#E0CFB8;fill-rule:nonzero}
    .fil4 {fill:#E5D6C6;fill-rule:nonzero}
    .fil5 {fill:#EFE5DC;fill-rule:nonzero}
    .fil2 {fill:white;fill-rule:nonzero}
   ]]></style>
    <style
       type="text/css"
       id="style2-1-0"><![CDATA[
    .str0 {stroke:white;stroke-width:70.56}
    .fil10 {fill:#6A1B13;fill-rule:nonzero}
    .fil2 {fill:#948D78;fill-rule:nonzero}
    .fil4 {fill:#AB9A5C;fill-rule:nonzero}
    .fil7 {fill:#D1C492;fill-rule:nonzero}
    .fil8 {fill:#E6E6E6;fill-rule:nonzero}
    .fil3 {fill:#EAE7E1;fill-rule:nonzero}
    .fil9 {fill:#EFB59E;fill-rule:nonzero}
    .fil1 {fill:#EFEAE1;fill-rule:nonzero}
    .fil5 {fill:#F2F2F2;fill-rule:nonzero}
    .fil6 {fill:#F7F1F0;fill-rule:nonzero}
    .fil0 {fill:white;fill-rule:nonzero}
   ]]></style>
    <style
       type="text/css"
       id="style2-4-1"><![CDATA[
    .fil4 {fill:#C1AA6F;fill-rule:nonzero}
    .fil2 {fill:#CEB880;fill-rule:nonzero}
    .fil5 {fill:#E0B13D;fill-rule:nonzero}
    .fil1 {fill:#E2AF10;fill-rule:nonzero}
    .fil0 {fill:#E5D19A;fill-rule:nonzero}
    .fil3 {fill:#E8D3A0;fill-rule:nonzero}
   ]]></style>
    <style
       type="text/css"
       id="style2-42-7"><![CDATA[
    .fil0 {fill:#628C2C;fill-rule:nonzero}
    .fil1 {fill:#914E1D;fill-rule:nonzero}
    .fil2 {fill:#C18761;fill-rule:nonzero}
    .fil3 {fill:#D1AA8F;fill-rule:nonzero}
   ]]></style>
    <style
       type="text/css"
       id="style2-2-49"><![CDATA[
    .fil1 {fill:#160901;fill-rule:nonzero}
    .fil0 {fill:#331704;fill-rule:nonzero}
    .fil2 {fill:#5B2A08;fill-rule:nonzero}
    .fil7 {fill:#628C2C;fill-rule:nonzero}
    .fil6 {fill:#6D0707;fill-rule:nonzero}
    .fil4 {fill:gray;fill-rule:nonzero}
    .fil8 {fill:#914E1D;fill-rule:nonzero}
    .fil5 {fill:#A01010;fill-rule:nonzero}
    .fil9 {fill:#C18761;fill-rule:nonzero}
    .fil10 {fill:#D1AA8F;fill-rule:nonzero}
    .fil3 {fill:#D1CCC9;fill-rule:nonzero}
   ]]></style>
    <style
       type="text/css"
       id="style2-7-1"><![CDATA[
    .fil3 {fill:black;fill-rule:nonzero}
    .fil10 {fill:#99816B;fill-rule:nonzero}
    .fil11 {fill:#AF987E;fill-rule:nonzero}
    .fil6 {fill:#B7A18A;fill-rule:nonzero}
    .fil1 {fill:#BA855A;fill-rule:nonzero}
    .fil7 {fill:#CCBAA3;fill-rule:nonzero}
    .fil9 {fill:#D3C2B2;fill-rule:nonzero}
    .fil0 {fill:#DDC8B1;fill-rule:nonzero}
    .fil8 {fill:#E0CFB8;fill-rule:nonzero}
    .fil4 {fill:#E5D6C6;fill-rule:nonzero}
    .fil5 {fill:#EFE5DC;fill-rule:nonzero}
    .fil2 {fill:white;fill-rule:nonzero}
   ]]></style>
    <font
       vert-adv-y="90"
       vert-origin-y="90"
       vert-origin-x="45"
       horiz-origin-y="0"
       horiz-origin-x="0"
       horiz-adv-x="722"
       font-weight="700"
       font-variant="normal"
       id="FontID0-7">
      <font-face
         font-family="Arial"
         id="font-face2-45" />
      <missing-glyph
         id="missing-glyph6-94">
        <path
           d="M 0 0 Z"
           id="path4-9" />
      </missing-glyph>
      <glyph
         unicode="D"
         horiz-adv-x="722"
         id="glyph10-4">
        <path
           d="M 72.9993 716.001 l 263.669 0 c 59.4971 0 104.834 -4.50075 136.002 -13.6706 c 41.8309 -12.3311 77.8292 -34.3297 107.666 -65.9956 c 29.9973 -31.5052 52.6618 -70.1672 68.3302 -116.001 c 15.5 -45.6657 23.3304 -102.17 23.3304 -169.168 c 0 -58.9996 -7.33285 -109.664 -21.9985 -152.329 c -17.8346 -52.1719 -43.3312 -94.3396 -76.4974 -126.503 c -24.999 -24.5015 -58.8312 -43.4996 -101.336 -57.1702 c -31.8344 -10.165 -74.3312 -15.1632 -127.667 -15.1632 l -271.499 0 l 0 716.001 Z m 145.004 -121 l 0 -474.002 l 107.497 0 c 40.1699 0 69.1645 2.33457 86.9991 6.83532 c 23.4988 5.8326 42.8336 15.8292 58.1653 29.8289 c 15.5 13.9998 27.9995 37.001 37.667 69.0038 c 9.83581 32.0028 14.6657 75.8315 14.6657 131.165 c 0 55.3332 -4.82988 97.6693 -14.6657 127.337 c -9.66742 29.6605 -23.3304 52.6618 -40.8282 69.3329 c -17.5055 16.4951 -39.6724 27.8311 -66.6692 33.6637 c -20.0008 4.50075 -59.5048 6.83532 -118.168 6.83532 l -64.6638 0 Z"
           id="path8-825" />
      </glyph>
      <glyph
         unicode="A"
         horiz-adv-x="722"
         id="glyph14-5">
        <path
           d="M 717.999 0 l -156.164 0 l -61.8317 162.999 l -287.168 0 l -59.5048 -162.999 l -153.332 0 l 277.998 716.001 l 153.171 0 l 286.831 -716.001 Z m -265.001 283.999 l -99.4986 265.001 l -96.6665 -265.001 l 196.165 0 Z"
           id="path12-95" />
      </glyph>
      <glyph
         unicode="L"
         horiz-adv-x="610"
         id="glyph18-4">
        <path
           d="M 77.0026 0 l 0 710 l 144.996 0 l 0 -589.001 l 359.003 0 l 0 -121 l -503.999 0 Z"
           id="path16-12" />
      </glyph>
      <glyph
         unicode="P"
         horiz-adv-x="666"
         id="glyph22-81">
        <path
           d="M 72.9993 0 l 0 716.001 l 231.834 0 c 87.8334 0 144.996 -3.49803 171.664 -10.6701 c 41.0042 -10.8309 75.3339 -34.1613 103.004 -70.1672 c 27.6628 -35.9983 41.5018 -82.4984 41.5018 -139.5 c 0 -43.9971 -8.00643 -80.8297 -23.8356 -110.827 c -15.9976 -30.005 -36.1667 -53.5038 -60.6682 -70.6724 c -24.5015 -17.0003 -49.5006 -28.3287 -74.8364 -33.8321 c -34.4981 -6.83532 -84.3278 -10.3333 -149.665 -10.3333 l -93.9952 0 l 0 -269.999 l -145.004 0 Z m 145.004 595.002 l 0 -204.003 l 78.8319 0 c 56.8334 0 94.6688 3.83482 113.835 11.3361 c 19.1664 7.50124 34.1613 19.1664 44.9998 35.3324 c 10.8309 15.9976 16.3267 34.4981 16.3267 55.8307 c 0 26.1702 -7.66198 47.6712 -22.8329 64.6714 c -15.3316 17.0003 -34.4981 27.6628 -57.9969 31.9951 c -17.1687 3.16889 -51.6667 4.83754 -103.67 4.83754 l -69.4937 0 Z"
           id="path20-1" />
      </glyph>
    </font>
    <style
       type="text/css"
       id="style25-04"><![CDATA[
    @font-face { font-family:"Arial";src:url("#FontID0") format(svg)}
    .fil5 {fill:#FF6600}
    .fil4 {fill:#EFB73A;fill-rule:nonzero}
    .fil2 {fill:#F9C646;fill-rule:nonzero}
    .fil1 {fill:#FCCD47;fill-rule:nonzero}
    .fil3 {fill:#FFDB80;fill-rule:nonzero}
    .fil0 {fill:#FFE8BB;fill-rule:nonzero}
    .fnt0 {font-weight:bold;font-size:1306.45px;font-family:'Arial'}
   ]]></style>
    <style
       type="text/css"
       id="style2-5-1"><![CDATA[
    .fil0 {fill:#10330B;fill-rule:nonzero}
    .fil1 {fill:#1C4C15;fill-rule:nonzero}
   ]]></style>
    <style
       type="text/css"
       id="style2-8-4"><![CDATA[
    .fil0 {fill:#2B4403;fill-rule:nonzero}
    .fil3 {fill:#2E2923;fill-rule:nonzero}
    .fil1 {fill:#4E7C05;fill-rule:nonzero}
    .fil2 {fill:#6A9615;fill-rule:nonzero}
    .fil4 {fill:#6D645B;fill-rule:nonzero}
   ]]></style>
    <font
       vert-adv-y="90"
       vert-origin-y="90"
       vert-origin-x="45"
       horiz-origin-y="0"
       horiz-origin-x="0"
       horiz-adv-x="722"
       font-weight="700"
       font-variant="normal"
       id="FontID0-2-9">
      <font-face
         font-family="Arial"
         id="font-face2-4-9" />
      <missing-glyph
         id="missing-glyph6-1-6">
        <path
           d="M 0 0 Z"
           id="path4-8-96" />
      </missing-glyph>
      <glyph
         unicode="T"
         horiz-adv-x="610"
         id="glyph10-9-1">
        <path
           d="M 234.001 0 l 0 594.999 l -212.004 0 l 0 121.001 l 568 0 l 0 -121.001 l -210.993 0 l 0 -594.999 l -145.002 0 Z"
           id="path8-2-0" />
      </glyph>
      <glyph
         unicode="s"
         horiz-adv-x="556"
         id="glyph14-6-6">
        <path
           d="M 22.9992 145.996 l 138.004 21.0036 c 5.83181 -26.4983 17.6594 -46.6636 35.6651 -60.3319 c 17.8326 -13.8323 43.0005 -20.6665 75.1665 -20.6665 c 35.5011 0 62.1634 6.497 80.1691 19.5001 c 11.9917 9.16687 17.9966 21.4957 17.9966 36.8315 c 0 10.3332 -3.33506 18.9989 -9.83206 25.8331 c -6.83415 6.497 -22.17 12.666 -45.8344 18.1697 c -110.832 24.4936 -181.005 46.8276 -210.665 67.002 c -41.1689 28.1658 -61.6714 67.166 -61.6714 116.992 c 0 45.1692 17.8326 83.003 53.3337 113.675 c 35.5011 30.6625 90.5024 45.9984 165.004 45.9984 c 71.0023 0 123.835 -11.6727 158.334 -34.8359 c 34.4988 -23.3363 58.3272 -57.662 71.3303 -103.168 l -129.001 -24.0015 c -5.49466 20.3384 -16.165 36.0023 -31.6649 46.8367 c -15.4998 10.8344 -37.6698 16.165 -66.5008 16.165 c -36.3303 0 -62.3365 -4.99348 -78.1644 -15.1627 c -10.4973 -7.1713 -15.6639 -16.5022 -15.6639 -27.8378 c 0 -9.83206 4.49231 -18.1606 13.6592 -24.9948 c 12.5019 -9.16687 55.3384 -22.006 128.673 -38.6722 c 73.3259 -16.6662 124.5 -36.9955 153.495 -61.1611 c 28.831 -24.3387 43.1645 -58.5003 43.1645 -102.166 c 0 -47.5019 -19.8281 -88.5068 -59.6667 -122.668 c -39.6654 -34.1707 -98.4938 -51.3381 -176.494 -51.3381 c -70.6651 0 -126.669 14.3335 -168.002 42.8364 c -41.1689 28.503 -68.1684 67.166 -80.8343 116.162 Z"
           id="path12-7-1" />
      </glyph>
      <glyph
         unicode="b"
         horiz-adv-x="610"
         id="glyph18-6-71">
        <path
           d="M 65.9997 0 l 0 716 l 137.002 0 l 0 -258.331 c 42.3353 48.1671 92.3339 72.3326 150.333 72.3326 c 63.1658 0 115.333 -22.8352 156.666 -68.6695 c 41.3329 -45.8344 61.9994 -111.67 61.9994 -197.498 c 0 -88.6708 -21.0036 -157.003 -63.1658 -204.997 c -42.1713 -47.839 -93.5003 -71.8406 -153.668 -71.8406 c -29.6693 0 -58.8284 7.67247 -87.6685 22.8352 c -28.831 15.3358 -53.6617 37.3327 -74.5013 66.3368 l 0 -76.1689 l -126.997 0 Z m 134.997 269.502 c 0 -53.8349 8.50168 -93.8374 25.505 -119.506 c 23.8284 -36.6584 55.3293 -54.9921 94.8306 -54.9921 c 30.3345 0 56.1676 12.994 77.6633 39.0002 c 21.3408 25.9971 32.002 66.9929 32.002 122.832 c 0 59.4935 -10.8344 102.33 -32.3301 128.664 c -21.5048 26.3343 -49.0054 39.5014 -82.6659 39.5014 c -33.0044 0 -60.3319 -12.8391 -82.1647 -38.499 c -21.8328 -25.6691 -32.8404 -64.6693 -32.8404 -117.001 Z"
           id="path16-6-6" />
      </glyph>
      <glyph
         unicode="u"
         horiz-adv-x="610"
         id="glyph22-3-54">
        <path
           d="M 414.997 0 l 0 77.6633 c -18.9989 -27.6646 -43.8297 -49.6615 -74.6654 -66.1637 c -30.8357 -16.3291 -63.3298 -24.5027 -97.5005 -24.5027 c -35 0 -66.3277 7.67247 -94.0014 22.9992 c -27.8287 15.3358 -47.8299 37.0046 -60.1587 64.6693 c -12.5019 27.8378 -18.6709 66.1637 -18.6709 115.169 l 0 329.169 l 137.002 0 l 0 -239.004 c 0 -73.1618 2.49674 -117.83 7.66336 -134.332 c 5.0026 -16.5022 14.1695 -29.6693 27.6646 -39.1642 c 13.3403 -9.66804 30.3345 -14.5066 51.001 -14.5066 c 23.5004 0 44.504 6.50611 63.1658 19.3361 c 18.6709 12.83 31.3369 28.831 38.171 48.0031 c 6.83415 19.163 10.3332 65.8265 10.3332 140.328 l 0 219.34 l 137.002 0 l 0 -519.003 l -127.006 0 Z"
           id="path20-5-7" />
      </glyph>
      <glyph
         unicode="r"
         horiz-adv-x="389"
         id="glyph26-8">
        <path
           d="M 203.002 0 l -137.002 0 l 0 519.003 l 126.997 0 l 0 -73.6721 c 21.8328 34.8359 41.5061 57.6711 59.0015 68.5055 c 17.5045 10.8253 37.3327 16.165 59.5027 16.165 c 31.3369 0 61.4982 -8.6657 90.5024 -25.8331 l -42.4993 -119.671 c -23.1723 14.9987 -44.668 22.498 -64.5053 22.498 c -19.3361 0 -35.6651 -5.33064 -48.9963 -15.8279 c -13.3311 -10.6704 -23.8375 -29.6693 -31.5009 -57.334 c -7.66336 -27.6646 -11.4996 -85.6638 -11.4996 -173.833 l 0 -160.001 Z"
           id="path24-3" />
      </glyph>
      <glyph
         unicode="l"
         horiz-adv-x="277"
         id="glyph30-88">
        <path
           d="M 71.9955 0 l 0 716 l 137.002 0 l 0 -716 l -137.002 0 Z"
           id="path28-0" />
      </glyph>
      <glyph
         unicode="i"
         horiz-adv-x="277"
         id="glyph34-84">
        <path
           d="M 71.9955 589.003 l 0 126.997 l 137.002 0 l 0 -126.997 l -137.002 0 Z m 0 -589.003 l 0 519.003 l 137.002 0 l 0 -519.003 l -137.002 0 Z"
           id="path32-1" />
      </glyph>
    </font>
    <style
       type="text/css"
       id="style37-8"><![CDATA[
    @font-face { font-family:"Arial";src:url("#FontID0") format(svg)}
    .fil5 {fill:white}
    .fil4 {fill:#EFB73A;fill-rule:nonzero}
    .fil2 {fill:#F9C646;fill-rule:nonzero}
    .fil1 {fill:#FCCD47;fill-rule:nonzero}
    .fil3 {fill:#FFDB80;fill-rule:nonzero}
    .fil0 {fill:#FFE8BB;fill-rule:nonzero}
    .fnt0 {font-weight:bold;font-size:1097.43px;font-family:'Arial'}
   ]]></style>
    <style
       type="text/css"
       id="style2-95-86"><![CDATA[
    .fil2 {fill:#B2725B;fill-rule:nonzero}
    .fil0 {fill:#DDD8A6;fill-rule:nonzero}
    .fil1 {fill:#EFECBD;fill-rule:nonzero}
   ]]></style>
    <style
       type="text/css"
       id="style2-9-3-398"><![CDATA[
    .fil3 {fill:black;fill-rule:nonzero}
    .fil10 {fill:#99816B;fill-rule:nonzero}
    .fil11 {fill:#AF987E;fill-rule:nonzero}
    .fil6 {fill:#B7A18A;fill-rule:nonzero}
    .fil1 {fill:#BA855A;fill-rule:nonzero}
    .fil7 {fill:#CCBAA3;fill-rule:nonzero}
    .fil9 {fill:#D3C2B2;fill-rule:nonzero}
    .fil0 {fill:#DDC8B1;fill-rule:nonzero}
    .fil8 {fill:#E0CFB8;fill-rule:nonzero}
    .fil4 {fill:#E5D6C6;fill-rule:nonzero}
    .fil5 {fill:#EFE5DC;fill-rule:nonzero}
    .fil2 {fill:white;fill-rule:nonzero}
   ]]></style>
    <style
       type="text/css"
       id="style2-1-9-03"><![CDATA[
    .str0 {stroke:white;stroke-width:70.56}
    .fil10 {fill:#6A1B13;fill-rule:nonzero}
    .fil2 {fill:#948D78;fill-rule:nonzero}
    .fil4 {fill:#AB9A5C;fill-rule:nonzero}
    .fil7 {fill:#D1C492;fill-rule:nonzero}
    .fil8 {fill:#E6E6E6;fill-rule:nonzero}
    .fil3 {fill:#EAE7E1;fill-rule:nonzero}
    .fil9 {fill:#EFB59E;fill-rule:nonzero}
    .fil1 {fill:#EFEAE1;fill-rule:nonzero}
    .fil5 {fill:#F2F2F2;fill-rule:nonzero}
    .fil6 {fill:#F7F1F0;fill-rule:nonzero}
    .fil0 {fill:white;fill-rule:nonzero}
   ]]></style>
    <style
       type="text/css"
       id="style2-4-5-8"><![CDATA[
    .fil4 {fill:#C1AA6F;fill-rule:nonzero}
    .fil2 {fill:#CEB880;fill-rule:nonzero}
    .fil5 {fill:#E0B13D;fill-rule:nonzero}
    .fil1 {fill:#E2AF10;fill-rule:nonzero}
    .fil0 {fill:#E5D19A;fill-rule:nonzero}
    .fil3 {fill:#E8D3A0;fill-rule:nonzero}
   ]]></style>
    <style
       type="text/css"
       id="style2-42-3-6"><![CDATA[
    .fil0 {fill:#628C2C;fill-rule:nonzero}
    .fil1 {fill:#914E1D;fill-rule:nonzero}
    .fil2 {fill:#C18761;fill-rule:nonzero}
    .fil3 {fill:#D1AA8F;fill-rule:nonzero}
   ]]></style>
    <style
       type="text/css"
       id="style2-2-6-1"><![CDATA[
    .fil1 {fill:#160901;fill-rule:nonzero}
    .fil0 {fill:#331704;fill-rule:nonzero}
    .fil2 {fill:#5B2A08;fill-rule:nonzero}
    .fil7 {fill:#628C2C;fill-rule:nonzero}
    .fil6 {fill:#6D0707;fill-rule:nonzero}
    .fil4 {fill:gray;fill-rule:nonzero}
    .fil8 {fill:#914E1D;fill-rule:nonzero}
    .fil5 {fill:#A01010;fill-rule:nonzero}
    .fil9 {fill:#C18761;fill-rule:nonzero}
    .fil10 {fill:#D1AA8F;fill-rule:nonzero}
    .fil3 {fill:#D1CCC9;fill-rule:nonzero}
   ]]></style>
    <style
       type="text/css"
       id="style2-7-8-8"><![CDATA[
    .fil3 {fill:black;fill-rule:nonzero}
    .fil10 {fill:#99816B;fill-rule:nonzero}
    .fil11 {fill:#AF987E;fill-rule:nonzero}
    .fil6 {fill:#B7A18A;fill-rule:nonzero}
    .fil1 {fill:#BA855A;fill-rule:nonzero}
    .fil7 {fill:#CCBAA3;fill-rule:nonzero}
    .fil9 {fill:#D3C2B2;fill-rule:nonzero}
    .fil0 {fill:#DDC8B1;fill-rule:nonzero}
    .fil8 {fill:#E0CFB8;fill-rule:nonzero}
    .fil4 {fill:#E5D6C6;fill-rule:nonzero}
    .fil5 {fill:#EFE5DC;fill-rule:nonzero}
    .fil2 {fill:white;fill-rule:nonzero}
   ]]></style>
    <font
       vert-adv-y="90"
       vert-origin-y="90"
       vert-origin-x="45"
       horiz-origin-y="0"
       horiz-origin-x="0"
       horiz-adv-x="722"
       font-weight="700"
       font-variant="normal"
       id="FontID0-8-5">
      <font-face
         font-family="Arial"
         id="font-face2-3-2" />
      <missing-glyph
         id="missing-glyph6-3-9">
        <path
           d="M 0 0 Z"
           id="path4-4-4" />
      </missing-glyph>
      <glyph
         unicode="D"
         horiz-adv-x="722"
         id="glyph10-6-4">
        <path
           d="M 72.9993 716.001 l 263.669 0 c 59.4971 0 104.834 -4.50075 136.002 -13.6706 c 41.8309 -12.3311 77.8292 -34.3297 107.666 -65.9956 c 29.9973 -31.5052 52.6618 -70.1672 68.3302 -116.001 c 15.5 -45.6657 23.3304 -102.17 23.3304 -169.168 c 0 -58.9996 -7.33285 -109.664 -21.9985 -152.329 c -17.8346 -52.1719 -43.3312 -94.3396 -76.4974 -126.503 c -24.999 -24.5015 -58.8312 -43.4996 -101.336 -57.1702 c -31.8344 -10.165 -74.3312 -15.1632 -127.667 -15.1632 l -271.499 0 l 0 716.001 Z m 145.004 -121 l 0 -474.002 l 107.497 0 c 40.1699 0 69.1645 2.33457 86.9991 6.83532 c 23.4988 5.8326 42.8336 15.8292 58.1653 29.8289 c 15.5 13.9998 27.9995 37.001 37.667 69.0038 c 9.83581 32.0028 14.6657 75.8315 14.6657 131.165 c 0 55.3332 -4.82988 97.6693 -14.6657 127.337 c -9.66742 29.6605 -23.3304 52.6618 -40.8282 69.3329 c -17.5055 16.4951 -39.6724 27.8311 -66.6692 33.6637 c -20.0008 4.50075 -59.5048 6.83532 -118.168 6.83532 l -64.6638 0 Z"
           id="path8-8-5" />
      </glyph>
      <glyph
         unicode="A"
         horiz-adv-x="722"
         id="glyph14-4-84">
        <path
           d="M 717.999 0 l -156.164 0 l -61.8317 162.999 l -287.168 0 l -59.5048 -162.999 l -153.332 0 l 277.998 716.001 l 153.171 0 l 286.831 -716.001 Z m -265.001 283.999 l -99.4986 265.001 l -96.6665 -265.001 l 196.165 0 Z"
           id="path12-9-35" />
      </glyph>
      <glyph
         unicode="L"
         horiz-adv-x="610"
         id="glyph18-5-1">
        <path
           d="M 77.0026 0 l 0 710 l 144.996 0 l 0 -589.001 l 359.003 0 l 0 -121 l -503.999 0 Z"
           id="path16-0-5" />
      </glyph>
      <glyph
         unicode="P"
         horiz-adv-x="666"
         id="glyph22-8-08">
        <path
           d="M 72.9993 0 l 0 716.001 l 231.834 0 c 87.8334 0 144.996 -3.49803 171.664 -10.6701 c 41.0042 -10.8309 75.3339 -34.1613 103.004 -70.1672 c 27.6628 -35.9983 41.5018 -82.4984 41.5018 -139.5 c 0 -43.9971 -8.00643 -80.8297 -23.8356 -110.827 c -15.9976 -30.005 -36.1667 -53.5038 -60.6682 -70.6724 c -24.5015 -17.0003 -49.5006 -28.3287 -74.8364 -33.8321 c -34.4981 -6.83532 -84.3278 -10.3333 -149.665 -10.3333 l -93.9952 0 l 0 -269.999 l -145.004 0 Z m 145.004 595.002 l 0 -204.003 l 78.8319 0 c 56.8334 0 94.6688 3.83482 113.835 11.3361 c 19.1664 7.50124 34.1613 19.1664 44.9998 35.3324 c 10.8309 15.9976 16.3267 34.4981 16.3267 55.8307 c 0 26.1702 -7.66198 47.6712 -22.8329 64.6714 c -15.3316 17.0003 -34.4981 27.6628 -57.9969 31.9951 c -17.1687 3.16889 -51.6667 4.83754 -103.67 4.83754 l -69.4937 0 Z"
           id="path20-8-17" />
      </glyph>
    </font>
    <style
       type="text/css"
       id="style25-1-6"><![CDATA[
    @font-face { font-family:"Arial";src:url("#FontID0") format(svg)}
    .fil5 {fill:#FF6600}
    .fil4 {fill:#EFB73A;fill-rule:nonzero}
    .fil2 {fill:#F9C646;fill-rule:nonzero}
    .fil1 {fill:#FCCD47;fill-rule:nonzero}
    .fil3 {fill:#FFDB80;fill-rule:nonzero}
    .fil0 {fill:#FFE8BB;fill-rule:nonzero}
    .fnt0 {font-weight:bold;font-size:1306.45px;font-family:'Arial'}
   ]]></style>
    <style
       type="text/css"
       id="style2-5-3-4"><![CDATA[
    .fil0 {fill:#10330B;fill-rule:nonzero}
    .fil1 {fill:#1C4C15;fill-rule:nonzero}
   ]]></style>
    <style
       type="text/css"
       id="style2-8-8-1"><![CDATA[
    .fil0 {fill:#2B4403;fill-rule:nonzero}
    .fil3 {fill:#2E2923;fill-rule:nonzero}
    .fil1 {fill:#4E7C05;fill-rule:nonzero}
    .fil2 {fill:#6A9615;fill-rule:nonzero}
    .fil4 {fill:#6D645B;fill-rule:nonzero}
   ]]></style>
    <font
       vert-adv-y="90"
       vert-origin-y="90"
       vert-origin-x="45"
       horiz-origin-y="0"
       horiz-origin-x="0"
       horiz-adv-x="722"
       font-weight="700"
       font-variant="normal"
       id="FontID0-2-4-78">
      <font-face
         font-family="Arial"
         id="font-face2-4-8-2" />
      <missing-glyph
         id="missing-glyph6-1-1-2">
        <path
           d="M 0 0 Z"
           id="path4-8-9-2" />
      </missing-glyph>
      <glyph
         unicode="T"
         horiz-adv-x="610"
         id="glyph10-9-0-3">
        <path
           d="M 234.001 0 l 0 594.999 l -212.004 0 l 0 121.001 l 568 0 l 0 -121.001 l -210.993 0 l 0 -594.999 l -145.002 0 Z"
           id="path8-2-9-4" />
      </glyph>
      <glyph
         unicode="s"
         horiz-adv-x="556"
         id="glyph14-6-9-3">
        <path
           d="M 22.9992 145.996 l 138.004 21.0036 c 5.83181 -26.4983 17.6594 -46.6636 35.6651 -60.3319 c 17.8326 -13.8323 43.0005 -20.6665 75.1665 -20.6665 c 35.5011 0 62.1634 6.497 80.1691 19.5001 c 11.9917 9.16687 17.9966 21.4957 17.9966 36.8315 c 0 10.3332 -3.33506 18.9989 -9.83206 25.8331 c -6.83415 6.497 -22.17 12.666 -45.8344 18.1697 c -110.832 24.4936 -181.005 46.8276 -210.665 67.002 c -41.1689 28.1658 -61.6714 67.166 -61.6714 116.992 c 0 45.1692 17.8326 83.003 53.3337 113.675 c 35.5011 30.6625 90.5024 45.9984 165.004 45.9984 c 71.0023 0 123.835 -11.6727 158.334 -34.8359 c 34.4988 -23.3363 58.3272 -57.662 71.3303 -103.168 l -129.001 -24.0015 c -5.49466 20.3384 -16.165 36.0023 -31.6649 46.8367 c -15.4998 10.8344 -37.6698 16.165 -66.5008 16.165 c -36.3303 0 -62.3365 -4.99348 -78.1644 -15.1627 c -10.4973 -7.1713 -15.6639 -16.5022 -15.6639 -27.8378 c 0 -9.83206 4.49231 -18.1606 13.6592 -24.9948 c 12.5019 -9.16687 55.3384 -22.006 128.673 -38.6722 c 73.3259 -16.6662 124.5 -36.9955 153.495 -61.1611 c 28.831 -24.3387 43.1645 -58.5003 43.1645 -102.166 c 0 -47.5019 -19.8281 -88.5068 -59.6667 -122.668 c -39.6654 -34.1707 -98.4938 -51.3381 -176.494 -51.3381 c -70.6651 0 -126.669 14.3335 -168.002 42.8364 c -41.1689 28.503 -68.1684 67.166 -80.8343 116.162 Z"
           id="path12-7-5-2" />
      </glyph>
      <glyph
         unicode="b"
         horiz-adv-x="610"
         id="glyph18-6-4-7">
        <path
           d="M 65.9997 0 l 0 716 l 137.002 0 l 0 -258.331 c 42.3353 48.1671 92.3339 72.3326 150.333 72.3326 c 63.1658 0 115.333 -22.8352 156.666 -68.6695 c 41.3329 -45.8344 61.9994 -111.67 61.9994 -197.498 c 0 -88.6708 -21.0036 -157.003 -63.1658 -204.997 c -42.1713 -47.839 -93.5003 -71.8406 -153.668 -71.8406 c -29.6693 0 -58.8284 7.67247 -87.6685 22.8352 c -28.831 15.3358 -53.6617 37.3327 -74.5013 66.3368 l 0 -76.1689 l -126.997 0 Z m 134.997 269.502 c 0 -53.8349 8.50168 -93.8374 25.505 -119.506 c 23.8284 -36.6584 55.3293 -54.9921 94.8306 -54.9921 c 30.3345 0 56.1676 12.994 77.6633 39.0002 c 21.3408 25.9971 32.002 66.9929 32.002 122.832 c 0 59.4935 -10.8344 102.33 -32.3301 128.664 c -21.5048 26.3343 -49.0054 39.5014 -82.6659 39.5014 c -33.0044 0 -60.3319 -12.8391 -82.1647 -38.499 c -21.8328 -25.6691 -32.8404 -64.6693 -32.8404 -117.001 Z"
           id="path16-6-5-0" />
      </glyph>
      <glyph
         unicode="u"
         horiz-adv-x="610"
         id="glyph22-3-0-0">
        <path
           d="M 414.997 0 l 0 77.6633 c -18.9989 -27.6646 -43.8297 -49.6615 -74.6654 -66.1637 c -30.8357 -16.3291 -63.3298 -24.5027 -97.5005 -24.5027 c -35 0 -66.3277 7.67247 -94.0014 22.9992 c -27.8287 15.3358 -47.8299 37.0046 -60.1587 64.6693 c -12.5019 27.8378 -18.6709 66.1637 -18.6709 115.169 l 0 329.169 l 137.002 0 l 0 -239.004 c 0 -73.1618 2.49674 -117.83 7.66336 -134.332 c 5.0026 -16.5022 14.1695 -29.6693 27.6646 -39.1642 c 13.3403 -9.66804 30.3345 -14.5066 51.001 -14.5066 c 23.5004 0 44.504 6.50611 63.1658 19.3361 c 18.6709 12.83 31.3369 28.831 38.171 48.0031 c 6.83415 19.163 10.3332 65.8265 10.3332 140.328 l 0 219.34 l 137.002 0 l 0 -519.003 l -127.006 0 Z"
           id="path20-5-9-0" />
      </glyph>
      <glyph
         unicode="r"
         horiz-adv-x="389"
         id="glyph26-7-1">
        <path
           d="M 203.002 0 l -137.002 0 l 0 519.003 l 126.997 0 l 0 -73.6721 c 21.8328 34.8359 41.5061 57.6711 59.0015 68.5055 c 17.5045 10.8253 37.3327 16.165 59.5027 16.165 c 31.3369 0 61.4982 -8.6657 90.5024 -25.8331 l -42.4993 -119.671 c -23.1723 14.9987 -44.668 22.498 -64.5053 22.498 c -19.3361 0 -35.6651 -5.33064 -48.9963 -15.8279 c -13.3311 -10.6704 -23.8375 -29.6693 -31.5009 -57.334 c -7.66336 -27.6646 -11.4996 -85.6638 -11.4996 -173.833 l 0 -160.001 Z"
           id="path24-9-4" />
      </glyph>
      <glyph
         unicode="l"
         horiz-adv-x="277"
         id="glyph30-1-3">
        <path
           d="M 71.9955 0 l 0 716 l 137.002 0 l 0 -716 l -137.002 0 Z"
           id="path28-2-1" />
      </glyph>
      <glyph
         unicode="i"
         horiz-adv-x="277"
         id="glyph34-2-10">
        <path
           d="M 71.9955 589.003 l 0 126.997 l 137.002 0 l 0 -126.997 l -137.002 0 Z m 0 -589.003 l 0 519.003 l 137.002 0 l 0 -519.003 l -137.002 0 Z"
           id="path32-2-8" />
      </glyph>
    </font>
    <style
       type="text/css"
       id="style37-4-39"><![CDATA[
    @font-face { font-family:"Arial";src:url("#FontID0") format(svg)}
    .fil5 {fill:white}
    .fil4 {fill:#EFB73A;fill-rule:nonzero}
    .fil2 {fill:#F9C646;fill-rule:nonzero}
    .fil1 {fill:#FCCD47;fill-rule:nonzero}
    .fil3 {fill:#FFDB80;fill-rule:nonzero}
    .fil0 {fill:#FFE8BB;fill-rule:nonzero}
    .fnt0 {font-weight:bold;font-size:1097.43px;font-family:'Arial'}
   ]]></style>
    <style
       type="text/css"
       id="style2-78-72"><![CDATA[
    .str0 {stroke:white;stroke-width:70.56}
    .fil6 {fill:#3F2A1B;fill-rule:nonzero}
    .fil1 {fill:#597103;fill-rule:nonzero}
    .fil5 {fill:#938F0A;fill-rule:nonzero}
    .fil2 {fill:#E27F13;fill-rule:nonzero}
    .fil4 {fill:#EAAF47;fill-rule:nonzero}
    .fil3 {fill:#ED9845;fill-rule:nonzero}
    .fil0 {fill:white;fill-rule:nonzero}
   ]]></style>
    <style
       type="text/css"
       id="style2-98-3"><![CDATA[
    .fil2 {fill:#0E2807;fill-rule:nonzero}
    .fil1 {fill:#2E5E24;fill-rule:nonzero}
    .fil3 {fill:#464940;fill-rule:nonzero}
    .fil0 {fill:#5D9E4D;fill-rule:nonzero}
    .fil4 {fill:#EFB82E;fill-rule:nonzero}
   ]]></style>
    <style
       type="text/css"
       id="style2-48-38"><![CDATA[
    .fil1 {fill:#8E8530;fill-rule:nonzero}
    .fil0 {fill:#A39C43;fill-rule:nonzero}
    .fil2 {fill:#A89F4A;fill-rule:nonzero}
    .fil3 {fill:#BFB85A;fill-rule:nonzero}
   ]]></style>
    <style
       type="text/css"
       id="style2-4-6-2"><![CDATA[
    .fil4 {fill:#9C572E;fill-rule:nonzero}
    .fil5 {fill:#AF6E4E;fill-rule:nonzero}
    .fil2 {fill:#B6795C;fill-rule:nonzero}
    .fil6 {fill:#B89479;fill-rule:nonzero}
    .fil3 {fill:#E5AC81;fill-rule:nonzero}
    .fil0 {fill:#EFDBA8;fill-rule:nonzero}
    .fil1 {fill:#F4E7C9;fill-rule:nonzero}
   ]]></style>
    <style
       type="text/css"
       id="style2-1-6-7"><![CDATA[
    .fil2 {fill:#30561A;fill-rule:nonzero}
    .fil3 {fill:#3C6626;fill-rule:nonzero}
    .fil1 {fill:#4E7A34;fill-rule:nonzero}
    .fil0 {fill:#72915D;fill-rule:nonzero}
    .fil6 {fill:#CE9E63;fill-rule:nonzero}
    .fil5 {fill:#D89E52;fill-rule:nonzero}
    .fil4 {fill:#D8B280;fill-rule:nonzero}
    .fil7 {fill:#E2CFA3;fill-rule:nonzero}
   ]]></style>
    <style
       type="text/css"
       id="style2-93-1"><![CDATA[
    .fil0 {fill:#6699FF}
    .fil1 {fill:#999999}
    .fil3 {fill:#B3B3B3}
    .fil2 {fill:#E6E6E6}
    .fil4 {fill:#CCCCCC;fill-rule:nonzero}
   ]]></style>
    <style
       type="text/css"
       id="style2-74"><![CDATA[
    .fil0 {fill:#E4DF9E;fill-rule:nonzero}
    .fil1 {fill:#5E8015;fill-rule:nonzero}
    .fil3 {fill:#669207;fill-rule:nonzero}
    .fil2 {fill:#CCCCCC;fill-rule:nonzero}
   ]]></style>
    <style
       type="text/css"
       id="style2-7-93"><![CDATA[
    .fil0 {fill:#607214;fill-rule:nonzero}
    .fil2 {fill:#823F71;fill-rule:nonzero}
    .fil1 {fill:#8FA02A;fill-rule:nonzero}
    .fil3 {fill:#C482B6;fill-rule:nonzero}
   ]]></style>
    <style
       type="text/css"
       id="style2-5-5"><![CDATA[
    .fil0 {fill:#E4DF9E;fill-rule:nonzero}
    .fil1 {fill:#5E8015;fill-rule:nonzero}
    .fil3 {fill:#607214;fill-rule:nonzero}
    .fil5 {fill:#823F71;fill-rule:nonzero}
    .fil4 {fill:#8FA02A;fill-rule:nonzero}
    .fil6 {fill:#C482B6;fill-rule:nonzero}
    .fil2 {fill:#CCCCCC;fill-rule:nonzero}
   ]]></style>
    <style
       type="text/css"
       id="style2-0"><![CDATA[
    .fil5 {fill:#135F04;fill-rule:nonzero}
    .fil4 {fill:#298712;fill-rule:nonzero}
    .fil3 {fill:#369E06;fill-rule:nonzero}
    .fil2 {fill:#3BA015;fill-rule:nonzero}
    .fil1 {fill:#50B028;fill-rule:nonzero}
    .fil0 {fill:#5AC736;fill-rule:nonzero}
   ]]></style>
    <style
       type="text/css"
       id="style2-1-92"><![CDATA[
    .fil0 {fill:#E4DF9E;fill-rule:nonzero}
    .fil8 {fill:#135F04;fill-rule:nonzero}
    .fil7 {fill:#298712;fill-rule:nonzero}
    .fil6 {fill:#369E06;fill-rule:nonzero}
    .fil5 {fill:#3BA015;fill-rule:nonzero}
    .fil4 {fill:#50B028;fill-rule:nonzero}
    .fil3 {fill:#5AC736;fill-rule:nonzero}
    .fil1 {fill:#5E8015;fill-rule:nonzero}
    .fil2 {fill:#CCCCCC;fill-rule:nonzero}
   ]]></style>
    <style
       type="text/css"
       id="style2-8-5"><![CDATA[
    .fil0 {fill:#E4DF9E;fill-rule:nonzero}
    .fil8 {fill:#135F04;fill-rule:nonzero}
    .fil7 {fill:#298712;fill-rule:nonzero}
    .fil6 {fill:#369E06;fill-rule:nonzero}
    .fil5 {fill:#3BA015;fill-rule:nonzero}
    .fil4 {fill:#50B028;fill-rule:nonzero}
    .fil3 {fill:#5AC736;fill-rule:nonzero}
    .fil1 {fill:#5E8015;fill-rule:nonzero}
    .fil2 {fill:#CCCCCC;fill-rule:nonzero}
   ]]></style>
    <style
       type="text/css"
       id="style2-9-4"><![CDATA[
    .fil5 {fill:#135F04;fill-rule:nonzero}
    .fil4 {fill:#298712;fill-rule:nonzero}
    .fil3 {fill:#369E06;fill-rule:nonzero}
    .fil2 {fill:#3BA015;fill-rule:nonzero}
    .fil1 {fill:#50B028;fill-rule:nonzero}
    .fil0 {fill:#5AC736;fill-rule:nonzero}
   ]]></style>
    <style
       type="text/css"
       id="style2-91"><![CDATA[
    .fil0 {fill:#E4DF9E;fill-rule:nonzero}
    .fil8 {fill:#135F04;fill-rule:nonzero}
    .fil7 {fill:#298712;fill-rule:nonzero}
    .fil6 {fill:#369E06;fill-rule:nonzero}
    .fil5 {fill:#3BA015;fill-rule:nonzero}
    .fil4 {fill:#50B028;fill-rule:nonzero}
    .fil3 {fill:#5AC736;fill-rule:nonzero}
    .fil1 {fill:#5E8015;fill-rule:nonzero}
    .fil2 {fill:#CCCCCC;fill-rule:nonzero}
   ]]></style>
    <style
       type="text/css"
       id="style2-24"><![CDATA[
    .fil3 {fill:black;fill-rule:nonzero}
    .fil10 {fill:#99816B;fill-rule:nonzero}
    .fil11 {fill:#AF987E;fill-rule:nonzero}
    .fil6 {fill:#B7A18A;fill-rule:nonzero}
    .fil1 {fill:#BA855A;fill-rule:nonzero}
    .fil7 {fill:#CCBAA3;fill-rule:nonzero}
    .fil9 {fill:#D3C2B2;fill-rule:nonzero}
    .fil0 {fill:#DDC8B1;fill-rule:nonzero}
    .fil8 {fill:#E0CFB8;fill-rule:nonzero}
    .fil4 {fill:#E5D6C6;fill-rule:nonzero}
    .fil5 {fill:#EFE5DC;fill-rule:nonzero}
    .fil2 {fill:white;fill-rule:nonzero}
   ]]></style>
    <style
       type="text/css"
       id="style2-1-0-8"><![CDATA[
    .str0 {stroke:white;stroke-width:70.56}
    .fil10 {fill:#6A1B13;fill-rule:nonzero}
    .fil2 {fill:#948D78;fill-rule:nonzero}
    .fil4 {fill:#AB9A5C;fill-rule:nonzero}
    .fil7 {fill:#D1C492;fill-rule:nonzero}
    .fil8 {fill:#E6E6E6;fill-rule:nonzero}
    .fil3 {fill:#EAE7E1;fill-rule:nonzero}
    .fil9 {fill:#EFB59E;fill-rule:nonzero}
    .fil1 {fill:#EFEAE1;fill-rule:nonzero}
    .fil5 {fill:#F2F2F2;fill-rule:nonzero}
    .fil6 {fill:#F7F1F0;fill-rule:nonzero}
    .fil0 {fill:white;fill-rule:nonzero}
   ]]></style>
    <style
       type="text/css"
       id="style2-4-4"><![CDATA[
    .fil4 {fill:#C1AA6F;fill-rule:nonzero}
    .fil2 {fill:#CEB880;fill-rule:nonzero}
    .fil5 {fill:#E0B13D;fill-rule:nonzero}
    .fil1 {fill:#E2AF10;fill-rule:nonzero}
    .fil0 {fill:#E5D19A;fill-rule:nonzero}
    .fil3 {fill:#E8D3A0;fill-rule:nonzero}
   ]]></style>
    <style
       type="text/css"
       id="style2-42-1"><![CDATA[
    .fil0 {fill:#628C2C;fill-rule:nonzero}
    .fil1 {fill:#914E1D;fill-rule:nonzero}
    .fil2 {fill:#C18761;fill-rule:nonzero}
    .fil3 {fill:#D1AA8F;fill-rule:nonzero}
   ]]></style>
    <style
       type="text/css"
       id="style2-2-41"><![CDATA[
    .fil1 {fill:#160901;fill-rule:nonzero}
    .fil0 {fill:#331704;fill-rule:nonzero}
    .fil2 {fill:#5B2A08;fill-rule:nonzero}
    .fil7 {fill:#628C2C;fill-rule:nonzero}
    .fil6 {fill:#6D0707;fill-rule:nonzero}
    .fil4 {fill:gray;fill-rule:nonzero}
    .fil8 {fill:#914E1D;fill-rule:nonzero}
    .fil5 {fill:#A01010;fill-rule:nonzero}
    .fil9 {fill:#C18761;fill-rule:nonzero}
    .fil10 {fill:#D1AA8F;fill-rule:nonzero}
    .fil3 {fill:#D1CCC9;fill-rule:nonzero}
   ]]></style>
    <style
       type="text/css"
       id="style2-7-5"><![CDATA[
    .fil3 {fill:black;fill-rule:nonzero}
    .fil10 {fill:#99816B;fill-rule:nonzero}
    .fil11 {fill:#AF987E;fill-rule:nonzero}
    .fil6 {fill:#B7A18A;fill-rule:nonzero}
    .fil1 {fill:#BA855A;fill-rule:nonzero}
    .fil7 {fill:#CCBAA3;fill-rule:nonzero}
    .fil9 {fill:#D3C2B2;fill-rule:nonzero}
    .fil0 {fill:#DDC8B1;fill-rule:nonzero}
    .fil8 {fill:#E0CFB8;fill-rule:nonzero}
    .fil4 {fill:#E5D6C6;fill-rule:nonzero}
    .fil5 {fill:#EFE5DC;fill-rule:nonzero}
    .fil2 {fill:white;fill-rule:nonzero}
   ]]></style>
    <style
       type="text/css"
       id="style2-00"><![CDATA[
    .fil3 {fill:#006837;fill-rule:nonzero}
    .fil2 {fill:#CCCCCC;fill-rule:nonzero}
    .fil1 {fill:#CCCCCC;fill-rule:nonzero}
    .fil0 {fill:#FAFFD6;fill-rule:nonzero}
   ]]></style>
    <style
       type="text/css"
       id="style2-03"><![CDATA[
    .fil3 {fill:black;fill-rule:nonzero}
    .fil10 {fill:#5D6608;fill-rule:nonzero}
    .fil9 {fill:#628C2C;fill-rule:nonzero}
    .fil6 {fill:#662E12;fill-rule:nonzero}
    .fil5 {fill:#7FA53D;fill-rule:nonzero}
    .fil7 {fill:#9B8138;fill-rule:nonzero}
    .fil4 {fill:#AACC79;fill-rule:nonzero}
    .fil11 {fill:#BA1313;fill-rule:nonzero}
    .fil8 {fill:#BA1515;fill-rule:nonzero}
    .fil1 {fill:#BA855A;fill-rule:nonzero}
    .fil12 {fill:#BF3D3D;fill-rule:nonzero}
    .fil0 {fill:#DDC8B1;fill-rule:nonzero}
    .fil2 {fill:white;fill-rule:nonzero}
   ]]></style>
    <style
       type="text/css"
       id="style2-28-8"><![CDATA[
    .str0 {stroke:white;stroke-width:70.56}
    .fil1 {fill:#2E0F57;fill-rule:nonzero}
    .fil4 {fill:#451682;fill-rule:nonzero}
    .fil2 {fill:#8F6EC4;fill-rule:nonzero}
    .fil3 {fill:#B09ADB;fill-rule:nonzero}
    .fil0 {fill:white;fill-rule:nonzero}
   ]]></style>
    <style
       type="text/css"
       id="style2-46"><![CDATA[
    .fil3 {fill:#66808D;fill-rule:nonzero}
    .fil1 {fill:#7D8B74;fill-rule:nonzero}
    .fil8 {fill:#0C0906;fill-rule:nonzero}
    .fil5 {fill:#39271A;fill-rule:nonzero}
    .fil7 {fill:#56361A;fill-rule:nonzero}
    .fil4 {fill:#943B38;fill-rule:nonzero}
    .fil2 {fill:#B0C6D9;fill-rule:nonzero}
    .fil9 {fill:#B78E70;fill-rule:nonzero}
    .fil6 {fill:#CAD3DB;fill-rule:nonzero}
    .fil0 {fill:#CCCCCC;fill-rule:nonzero}
    .fil11 {fill:#E3E8F1;fill-rule:nonzero}
    .fil10 {fill:#EFD9CA;fill-rule:nonzero}
   ]]></style>
    <style
       type="text/css"
       id="style2-003"><![CDATA[
    .fil1 {fill:#DB9D77;fill-rule:nonzero}
    .fil16 {fill:#06001D;fill-rule:nonzero}
    .fil8 {fill:#2B1A08;fill-rule:nonzero}
    .fil5 {fill:#3A2611;fill-rule:nonzero}
    .fil19 {fill:#3D2513;fill-rule:nonzero}
    .fil17 {fill:#44291F;fill-rule:nonzero}
    .fil22 {fill:#442E1D;fill-rule:nonzero}
    .fil11 {fill:#493116;fill-rule:nonzero}
    .fil18 {fill:#49372B;fill-rule:nonzero}
    .fil12 {fill:#6D502B;fill-rule:nonzero}
    .fil13 {fill:#704F33;fill-rule:nonzero}
    .fil20 {fill:#70533A;fill-rule:nonzero}
    .fil7 {fill:#7C726B;fill-rule:nonzero}
    .fil9 {fill:#9B7F31;fill-rule:nonzero}
    .fil6 {fill:#9E9188;fill-rule:nonzero}
    .fil15 {fill:#A69186;fill-rule:nonzero}
    .fil21 {fill:#BAAEA6;fill-rule:nonzero}
    .fil10 {fill:#C1A54C;fill-rule:nonzero}
    .fil14 {fill:#CCBBB4;fill-rule:nonzero}
    .fil2 {fill:#CE8963;fill-rule:nonzero}
    .fil0 {fill:#DEB194;fill-rule:nonzero}
    .fil4 {fill:#EACED5;fill-rule:nonzero}
    .fil3 {fill:#EFD8DB;fill-rule:nonzero}
   ]]></style>
    <style
       type="text/css"
       id="style2-6"><![CDATA[
    .fil2 {fill:#B45E67;fill-rule:nonzero}
    .fil1 {fill:#D2ADB4;fill-rule:nonzero}
    .fil4 {fill:#EACED5;fill-rule:nonzero}
    .fil0 {fill:#EDC3C5;fill-rule:nonzero}
    .fil3 {fill:#EFD8DB;fill-rule:nonzero}
   ]]></style>
    <style
       type="text/css"
       id="style2-7-8-2"><![CDATA[
    .fil1 {fill:#DB9D77;fill-rule:nonzero}
    .fil12 {fill:#100F1C;fill-rule:nonzero}
    .fil23 {fill:#2E293F;fill-rule:nonzero}
    .fil11 {fill:#3F2E32;fill-rule:nonzero}
    .fil17 {fill:#494854;fill-rule:nonzero}
    .fil13 {fill:#4C454D;fill-rule:nonzero}
    .fil14 {fill:#514B60;fill-rule:nonzero}
    .fil10 {fill:#65595B;fill-rule:nonzero}
    .fil16 {fill:#6A7B93;fill-rule:nonzero}
    .fil24 {fill:#72695B;fill-rule:nonzero}
    .fil20 {fill:#8D9B9E;fill-rule:nonzero}
    .fil7 {fill:#8E8B94;fill-rule:nonzero}
    .fil21 {fill:#8E97A5;fill-rule:nonzero}
    .fil15 {fill:#B3BED0;fill-rule:nonzero}
    .fil18 {fill:#B8B5B0;fill-rule:nonzero}
    .fil8 {fill:#CAC9C4;fill-rule:nonzero}
    .fil6 {fill:#CACDD2;fill-rule:nonzero}
    .fil2 {fill:#CE8963;fill-rule:nonzero}
    .fil5 {fill:#D9DDDE;fill-rule:nonzero}
    .fil0 {fill:#DEB194;fill-rule:nonzero}
    .fil9 {fill:#E4E0DD;fill-rule:nonzero}
    .fil19 {fill:#E8E7E2;fill-rule:nonzero}
    .fil4 {fill:#EACED5;fill-rule:nonzero}
    .fil3 {fill:#EFD8DB;fill-rule:nonzero}
    .fil22 {fill:#F2EFED;fill-rule:nonzero}
   ]]></style>
    <style
       type="text/css"
       id="style2-5-3-6"><![CDATA[
    .fil1 {fill:#DB9D77;fill-rule:nonzero}
    .fil18 {fill:#33190E;fill-rule:nonzero}
    .fil10 {fill:#382515;fill-rule:nonzero}
    .fil9 {fill:#3D2718;fill-rule:nonzero}
    .fil16 {fill:#47362A;fill-rule:nonzero}
    .fil6 {fill:#5D3A27;fill-rule:nonzero}
    .fil7 {fill:#715236;fill-rule:nonzero}
    .fil14 {fill:#715E4F;fill-rule:nonzero}
    .fil5 {fill:#7D5B40;fill-rule:nonzero}
    .fil8 {fill:#8E7661;fill-rule:nonzero}
    .fil12 {fill:#968174;fill-rule:nonzero}
    .fil15 {fill:#B79F8F;fill-rule:nonzero}
    .fil17 {fill:#BC9F88;fill-rule:nonzero}
    .fil13 {fill:#BF7F4F;fill-rule:nonzero}
    .fil11 {fill:#C4B4A9;fill-rule:nonzero}
    .fil2 {fill:#CE8963;fill-rule:nonzero}
    .fil0 {fill:#DEB194;fill-rule:nonzero}
    .fil4 {fill:#EACED5;fill-rule:nonzero}
    .fil3 {fill:#EFD8DB;fill-rule:nonzero}
    .fil20 {fill:#382515;}
    .fil19 {fill:#B09C8B;}
   ]]></style>
    <style
       type="text/css"
       id="style2-4-7"><![CDATA[
    .fil1 {fill:#DB9D77;fill-rule:nonzero}
    .fil18 {fill:#33190E;fill-rule:nonzero}
    .fil10 {fill:#382515;fill-rule:nonzero}
    .fil9 {fill:#3D2718;fill-rule:nonzero}
    .fil16 {fill:#47362A;fill-rule:nonzero}
    .fil6 {fill:#5D3A27;fill-rule:nonzero}
    .fil7 {fill:#715236;fill-rule:nonzero}
    .fil14 {fill:#715E4F;fill-rule:nonzero}
    .fil5 {fill:#7D5B40;fill-rule:nonzero}
    .fil8 {fill:#8E7661;fill-rule:nonzero}
    .fil12 {fill:#968174;fill-rule:nonzero}
    .fil15 {fill:#B79F8F;fill-rule:nonzero}
    .fil17 {fill:#BC9F88;fill-rule:nonzero}
    .fil13 {fill:#BF7F4F;fill-rule:nonzero}
    .fil11 {fill:#C4B4A9;fill-rule:nonzero}
    .fil2 {fill:#CE8963;fill-rule:nonzero}
    .fil0 {fill:#DEB194;fill-rule:nonzero}
    .fil4 {fill:#EACED5;fill-rule:nonzero}
    .fil3 {fill:#EFD8DB;fill-rule:nonzero}
    .fil20 {fill:#382515;}
    .fil19 {fill:#B09C8B;}
   ]]></style>
    <style
       type="text/css"
       id="style2-1-7"><![CDATA[
    .fil1 {fill:#DB9D77;fill-rule:nonzero}
    .fil12 {fill:#1B1B1B;fill-rule:nonzero}
    .fil10 {fill:#282622;fill-rule:nonzero}
    .fil17 {fill:#493321;fill-rule:nonzero}
    .fil14 {fill:#493522;fill-rule:nonzero}
    .fil11 {fill:#4C3625;fill-rule:nonzero}
    .fil9 {fill:#604833;fill-rule:nonzero}
    .fil19 {fill:#63472E;fill-rule:nonzero}
    .fil13 {fill:#6D523A;fill-rule:nonzero}
    .fil18 {fill:#7F5C3C;fill-rule:nonzero}
    .fil8 {fill:#856B50;fill-rule:nonzero}
    .fil16 {fill:#8C6641;fill-rule:nonzero}
    .fil5 {fill:#9B744E;fill-rule:nonzero}
    .fil6 {fill:#A88158;fill-rule:nonzero}
    .fil7 {fill:#B88F63;fill-rule:nonzero}
    .fil15 {fill:#C1A085;fill-rule:nonzero}
    .fil2 {fill:#CE8963;fill-rule:nonzero}
    .fil0 {fill:#DEB194;fill-rule:nonzero}
    .fil4 {fill:#EACED5;fill-rule:nonzero}
    .fil3 {fill:#EFD8DB;fill-rule:nonzero}
    .fil20 {fill:#FEFEFE;}
    .fil21 {fill:#FEFEFE;}
   ]]></style>
    <style
       type="text/css"
       id="style2-41"><![CDATA[
    .fil1 {fill:#DB9D77;fill-rule:nonzero}
    .fil13 {fill:#231414;fill-rule:nonzero}
    .fil15 {fill:#2D0C15;fill-rule:nonzero}
    .fil12 {fill:#2D100B;fill-rule:nonzero}
    .fil9 {fill:#3D2A2A;fill-rule:nonzero}
    .fil8 {fill:#515153;fill-rule:nonzero}
    .fil17 {fill:#897E72;fill-rule:nonzero}
    .fil18 {fill:#9E9078;fill-rule:nonzero}
    .fil6 {fill:#C8C2B6;fill-rule:nonzero}
    .fil2 {fill:#CE8963;fill-rule:nonzero}
    .fil10 {fill:#D3C5BA;fill-rule:nonzero}
    .fil5 {fill:#D4CFC9;fill-rule:nonzero}
    .fil0 {fill:#DEB194;fill-rule:nonzero}
    .fil11 {fill:#E5C9C6;fill-rule:nonzero}
    .fil7 {fill:#E8E2DD;fill-rule:nonzero}
    .fil4 {fill:#EACED5;fill-rule:nonzero}
    .fil3 {fill:#EFD8DB;fill-rule:nonzero}
    .fil14 {fill:#F1C9A6;fill-rule:nonzero}
    .fil16 {fill:#ACACB7;fill-rule:nonzero;}
   ]]></style>
    <style
       type="text/css"
       id="style2-18"><![CDATA[
    .fil1 {fill:#DB9D77;fill-rule:nonzero}
    .fil15 {fill:#493842;fill-rule:nonzero}
    .fil12 {fill:#A34051;fill-rule:nonzero}
    .fil13 {fill:#A52F2F;fill-rule:nonzero}
    .fil14 {fill:#AF3E3E;fill-rule:nonzero}
    .fil16 {fill:#CC3636;fill-rule:nonzero}
    .fil2 {fill:#CE8963;fill-rule:nonzero}
    .fil19 {fill:#D17979;fill-rule:nonzero}
    .fil11 {fill:#D85656;fill-rule:nonzero}
    .fil17 {fill:#D86E4E;fill-rule:nonzero}
    .fil18 {fill:#DB7979;fill-rule:nonzero}
    .fil5 {fill:#DDBAB3;fill-rule:nonzero}
    .fil0 {fill:#DEB194;fill-rule:nonzero}
    .fil9 {fill:#E6AFA2;fill-rule:nonzero}
    .fil4 {fill:#EACED5;fill-rule:nonzero}
    .fil3 {fill:#EFD8DB;fill-rule:nonzero}
    .fil6 {fill:#F1D1C0;fill-rule:nonzero}
    .fil20 {fill:#F2DAD6;fill-rule:nonzero}
    .fil8 {fill:#F3B492;fill-rule:nonzero}
    .fil10 {fill:#F3D3CE;fill-rule:nonzero}
    .fil24 {fill:#F4D7CB;fill-rule:nonzero}
    .fil23 {fill:#F7E8E7;fill-rule:nonzero}
    .fil21 {fill:#F9ECEA;fill-rule:nonzero}
    .fil7 {fill:#FACBBE;fill-rule:nonzero}
    .fil22 {fill:#FCECE8;fill-rule:nonzero}
   ]]></style>
    <style
       type="text/css"
       id="style2-2-7"><![CDATA[
    .fil1 {fill:#DB9D77;fill-rule:nonzero}
    .fil15 {fill:#201C11;fill-rule:nonzero}
    .fil13 {fill:#3D2D0E;fill-rule:nonzero}
    .fil7 {fill:#442F1E;fill-rule:nonzero}
    .fil19 {fill:#514424;fill-rule:nonzero}
    .fil12 {fill:#544219;fill-rule:nonzero}
    .fil6 {fill:#605232;fill-rule:nonzero}
    .fil17 {fill:#756740;fill-rule:nonzero}
    .fil22 {fill:#77644D;fill-rule:nonzero}
    .fil14 {fill:#846939;fill-rule:nonzero}
    .fil21 {fill:#876348;fill-rule:nonzero}
    .fil9 {fill:#938675;fill-rule:nonzero}
    .fil5 {fill:#998C6C;fill-rule:nonzero}
    .fil16 {fill:#9B7359;fill-rule:nonzero}
    .fil8 {fill:#9E9078;fill-rule:nonzero}
    .fil10 {fill:#A7A090;fill-rule:nonzero}
    .fil11 {fill:#BCB5A4;fill-rule:nonzero}
    .fil2 {fill:#CE8963;fill-rule:nonzero}
    .fil20 {fill:#D6C5AE;fill-rule:nonzero}
    .fil0 {fill:#DEB194;fill-rule:nonzero}
    .fil18 {fill:#E2D8C3;fill-rule:nonzero}
    .fil4 {fill:#EACED5;fill-rule:nonzero}
    .fil3 {fill:#EFD8DB;fill-rule:nonzero}
   ]]></style>
    <style
       type="text/css"
       id="style2-8-1-9"><![CDATA[
    .fil2 {fill:#F7E7D8;fill-rule:nonzero}
    .fil1 {fill:#E7E5DB;fill-rule:nonzero}
    .fil7 {fill:black;fill-rule:nonzero}
    .fil10 {fill:#3D3633;fill-rule:nonzero}
    .fil9 {fill:#3F3936;fill-rule:nonzero}
    .fil6 {fill:#443D3A;fill-rule:nonzero}
    .fil5 {fill:#9E8F85;fill-rule:nonzero}
    .fil8 {fill:#AAA5A2;fill-rule:nonzero}
    .fil3 {fill:#B45E67;fill-rule:nonzero}
    .fil0 {fill:#EFDCCA;fill-rule:nonzero}
    .fil4 {fill:#FCF4ED;fill-rule:nonzero}
   ]]></style>
    <style
       type="text/css"
       id="style2-9-8"><![CDATA[
    .fil3 {fill:#006837;fill-rule:nonzero}
    .fil1 {fill:#74A02E;fill-rule:nonzero}
    .fil0 {fill:#C5D389;fill-rule:nonzero}
    .fil2 {fill:#CCCCCC;fill-rule:nonzero}
   ]]></style>
    <style
       type="text/css"
       id="style2-3"><![CDATA[
    .fil3 {fill:#231703;fill-rule:nonzero}
    .fil0 {fill:#473012;fill-rule:nonzero}
    .fil1 {fill:#4B601C;fill-rule:nonzero}
    .fil2 {fill:#CCCCCC;fill-rule:nonzero}
   ]]></style>
    <style
       type="text/css"
       id="style2-27"><![CDATA[
    .fil1 {fill:#DB9D77;fill-rule:nonzero}
    .fil16 {fill:#06001D;fill-rule:nonzero}
    .fil8 {fill:#2B1A08;fill-rule:nonzero}
    .fil5 {fill:#3A2611;fill-rule:nonzero}
    .fil19 {fill:#3D2513;fill-rule:nonzero}
    .fil17 {fill:#44291F;fill-rule:nonzero}
    .fil22 {fill:#442E1D;fill-rule:nonzero}
    .fil11 {fill:#493116;fill-rule:nonzero}
    .fil18 {fill:#49372B;fill-rule:nonzero}
    .fil12 {fill:#6D502B;fill-rule:nonzero}
    .fil13 {fill:#704F33;fill-rule:nonzero}
    .fil20 {fill:#70533A;fill-rule:nonzero}
    .fil7 {fill:#7C726B;fill-rule:nonzero}
    .fil9 {fill:#9B7F31;fill-rule:nonzero}
    .fil6 {fill:#9E9188;fill-rule:nonzero}
    .fil15 {fill:#A69186;fill-rule:nonzero}
    .fil21 {fill:#BAAEA6;fill-rule:nonzero}
    .fil10 {fill:#C1A54C;fill-rule:nonzero}
    .fil14 {fill:#CCBBB4;fill-rule:nonzero}
    .fil2 {fill:#CE8963;fill-rule:nonzero}
    .fil0 {fill:#DEB194;fill-rule:nonzero}
    .fil4 {fill:#EACED5;fill-rule:nonzero}
    .fil3 {fill:#EFD8DB;fill-rule:nonzero}
   ]]></style>
    <style
       type="text/css"
       id="style2-6-3"><![CDATA[
    .fil2 {fill:#B45E67;fill-rule:nonzero}
    .fil1 {fill:#D2ADB4;fill-rule:nonzero}
    .fil4 {fill:#EACED5;fill-rule:nonzero}
    .fil0 {fill:#EDC3C5;fill-rule:nonzero}
    .fil3 {fill:#EFD8DB;fill-rule:nonzero}
   ]]></style>
    <style
       type="text/css"
       id="style2-7-9-5"><![CDATA[
    .fil1 {fill:#DB9D77;fill-rule:nonzero}
    .fil12 {fill:#100F1C;fill-rule:nonzero}
    .fil23 {fill:#2E293F;fill-rule:nonzero}
    .fil11 {fill:#3F2E32;fill-rule:nonzero}
    .fil17 {fill:#494854;fill-rule:nonzero}
    .fil13 {fill:#4C454D;fill-rule:nonzero}
    .fil14 {fill:#514B60;fill-rule:nonzero}
    .fil10 {fill:#65595B;fill-rule:nonzero}
    .fil16 {fill:#6A7B93;fill-rule:nonzero}
    .fil24 {fill:#72695B;fill-rule:nonzero}
    .fil20 {fill:#8D9B9E;fill-rule:nonzero}
    .fil7 {fill:#8E8B94;fill-rule:nonzero}
    .fil21 {fill:#8E97A5;fill-rule:nonzero}
    .fil15 {fill:#B3BED0;fill-rule:nonzero}
    .fil18 {fill:#B8B5B0;fill-rule:nonzero}
    .fil8 {fill:#CAC9C4;fill-rule:nonzero}
    .fil6 {fill:#CACDD2;fill-rule:nonzero}
    .fil2 {fill:#CE8963;fill-rule:nonzero}
    .fil5 {fill:#D9DDDE;fill-rule:nonzero}
    .fil0 {fill:#DEB194;fill-rule:nonzero}
    .fil9 {fill:#E4E0DD;fill-rule:nonzero}
    .fil19 {fill:#E8E7E2;fill-rule:nonzero}
    .fil4 {fill:#EACED5;fill-rule:nonzero}
    .fil3 {fill:#EFD8DB;fill-rule:nonzero}
    .fil22 {fill:#F2EFED;fill-rule:nonzero}
   ]]></style>
    <style
       type="text/css"
       id="style2-5-0"><![CDATA[
    .fil1 {fill:#DB9D77;fill-rule:nonzero}
    .fil18 {fill:#33190E;fill-rule:nonzero}
    .fil10 {fill:#382515;fill-rule:nonzero}
    .fil9 {fill:#3D2718;fill-rule:nonzero}
    .fil16 {fill:#47362A;fill-rule:nonzero}
    .fil6 {fill:#5D3A27;fill-rule:nonzero}
    .fil7 {fill:#715236;fill-rule:nonzero}
    .fil14 {fill:#715E4F;fill-rule:nonzero}
    .fil5 {fill:#7D5B40;fill-rule:nonzero}
    .fil8 {fill:#8E7661;fill-rule:nonzero}
    .fil12 {fill:#968174;fill-rule:nonzero}
    .fil15 {fill:#B79F8F;fill-rule:nonzero}
    .fil17 {fill:#BC9F88;fill-rule:nonzero}
    .fil13 {fill:#BF7F4F;fill-rule:nonzero}
    .fil11 {fill:#C4B4A9;fill-rule:nonzero}
    .fil2 {fill:#CE8963;fill-rule:nonzero}
    .fil0 {fill:#DEB194;fill-rule:nonzero}
    .fil4 {fill:#EACED5;fill-rule:nonzero}
    .fil3 {fill:#EFD8DB;fill-rule:nonzero}
    .fil20 {fill:#382515;}
    .fil19 {fill:#B09C8B;}
   ]]></style>
    <style
       type="text/css"
       id="style2-4-0"><![CDATA[
    .fil1 {fill:#DB9D77;fill-rule:nonzero}
    .fil18 {fill:#33190E;fill-rule:nonzero}
    .fil10 {fill:#382515;fill-rule:nonzero}
    .fil9 {fill:#3D2718;fill-rule:nonzero}
    .fil16 {fill:#47362A;fill-rule:nonzero}
    .fil6 {fill:#5D3A27;fill-rule:nonzero}
    .fil7 {fill:#715236;fill-rule:nonzero}
    .fil14 {fill:#715E4F;fill-rule:nonzero}
    .fil5 {fill:#7D5B40;fill-rule:nonzero}
    .fil8 {fill:#8E7661;fill-rule:nonzero}
    .fil12 {fill:#968174;fill-rule:nonzero}
    .fil15 {fill:#B79F8F;fill-rule:nonzero}
    .fil17 {fill:#BC9F88;fill-rule:nonzero}
    .fil13 {fill:#BF7F4F;fill-rule:nonzero}
    .fil11 {fill:#C4B4A9;fill-rule:nonzero}
    .fil2 {fill:#CE8963;fill-rule:nonzero}
    .fil0 {fill:#DEB194;fill-rule:nonzero}
    .fil4 {fill:#EACED5;fill-rule:nonzero}
    .fil3 {fill:#EFD8DB;fill-rule:nonzero}
    .fil20 {fill:#382515;}
    .fil19 {fill:#B09C8B;}
   ]]></style>
    <style
       type="text/css"
       id="style2-1-9-05"><![CDATA[
    .fil1 {fill:#DB9D77;fill-rule:nonzero}
    .fil12 {fill:#1B1B1B;fill-rule:nonzero}
    .fil10 {fill:#282622;fill-rule:nonzero}
    .fil17 {fill:#493321;fill-rule:nonzero}
    .fil14 {fill:#493522;fill-rule:nonzero}
    .fil11 {fill:#4C3625;fill-rule:nonzero}
    .fil9 {fill:#604833;fill-rule:nonzero}
    .fil19 {fill:#63472E;fill-rule:nonzero}
    .fil13 {fill:#6D523A;fill-rule:nonzero}
    .fil18 {fill:#7F5C3C;fill-rule:nonzero}
    .fil8 {fill:#856B50;fill-rule:nonzero}
    .fil16 {fill:#8C6641;fill-rule:nonzero}
    .fil5 {fill:#9B744E;fill-rule:nonzero}
    .fil6 {fill:#A88158;fill-rule:nonzero}
    .fil7 {fill:#B88F63;fill-rule:nonzero}
    .fil15 {fill:#C1A085;fill-rule:nonzero}
    .fil2 {fill:#CE8963;fill-rule:nonzero}
    .fil0 {fill:#DEB194;fill-rule:nonzero}
    .fil4 {fill:#EACED5;fill-rule:nonzero}
    .fil3 {fill:#EFD8DB;fill-rule:nonzero}
    .fil20 {fill:#FEFEFE;}
    .fil21 {fill:#FEFEFE;}
   ]]></style>
    <style
       type="text/css"
       id="style2-41-0"><![CDATA[
    .fil1 {fill:#DB9D77;fill-rule:nonzero}
    .fil13 {fill:#231414;fill-rule:nonzero}
    .fil15 {fill:#2D0C15;fill-rule:nonzero}
    .fil12 {fill:#2D100B;fill-rule:nonzero}
    .fil9 {fill:#3D2A2A;fill-rule:nonzero}
    .fil8 {fill:#515153;fill-rule:nonzero}
    .fil17 {fill:#897E72;fill-rule:nonzero}
    .fil18 {fill:#9E9078;fill-rule:nonzero}
    .fil6 {fill:#C8C2B6;fill-rule:nonzero}
    .fil2 {fill:#CE8963;fill-rule:nonzero}
    .fil10 {fill:#D3C5BA;fill-rule:nonzero}
    .fil5 {fill:#D4CFC9;fill-rule:nonzero}
    .fil0 {fill:#DEB194;fill-rule:nonzero}
    .fil11 {fill:#E5C9C6;fill-rule:nonzero}
    .fil7 {fill:#E8E2DD;fill-rule:nonzero}
    .fil4 {fill:#EACED5;fill-rule:nonzero}
    .fil3 {fill:#EFD8DB;fill-rule:nonzero}
    .fil14 {fill:#F1C9A6;fill-rule:nonzero}
    .fil16 {fill:#ACACB7;fill-rule:nonzero;}
   ]]></style>
    <style
       type="text/css"
       id="style2-18-7"><![CDATA[
    .fil1 {fill:#DB9D77;fill-rule:nonzero}
    .fil15 {fill:#493842;fill-rule:nonzero}
    .fil12 {fill:#A34051;fill-rule:nonzero}
    .fil13 {fill:#A52F2F;fill-rule:nonzero}
    .fil14 {fill:#AF3E3E;fill-rule:nonzero}
    .fil16 {fill:#CC3636;fill-rule:nonzero}
    .fil2 {fill:#CE8963;fill-rule:nonzero}
    .fil19 {fill:#D17979;fill-rule:nonzero}
    .fil11 {fill:#D85656;fill-rule:nonzero}
    .fil17 {fill:#D86E4E;fill-rule:nonzero}
    .fil18 {fill:#DB7979;fill-rule:nonzero}
    .fil5 {fill:#DDBAB3;fill-rule:nonzero}
    .fil0 {fill:#DEB194;fill-rule:nonzero}
    .fil9 {fill:#E6AFA2;fill-rule:nonzero}
    .fil4 {fill:#EACED5;fill-rule:nonzero}
    .fil3 {fill:#EFD8DB;fill-rule:nonzero}
    .fil6 {fill:#F1D1C0;fill-rule:nonzero}
    .fil20 {fill:#F2DAD6;fill-rule:nonzero}
    .fil8 {fill:#F3B492;fill-rule:nonzero}
    .fil10 {fill:#F3D3CE;fill-rule:nonzero}
    .fil24 {fill:#F4D7CB;fill-rule:nonzero}
    .fil23 {fill:#F7E8E7;fill-rule:nonzero}
    .fil21 {fill:#F9ECEA;fill-rule:nonzero}
    .fil7 {fill:#FACBBE;fill-rule:nonzero}
    .fil22 {fill:#FCECE8;fill-rule:nonzero}
   ]]></style>
    <style
       type="text/css"
       id="style2-47"><![CDATA[
    .fil1 {fill:#DB9D77;fill-rule:nonzero}
    .fil10 {fill:#636363;fill-rule:nonzero}
    .fil11 {fill:#A3A1A0;fill-rule:nonzero}
    .fil5 {fill:#BCA696;fill-rule:nonzero}
    .fil7 {fill:#BCBCBC;fill-rule:nonzero}
    .fil2 {fill:#CE8963;fill-rule:nonzero}
    .fil9 {fill:#CEBBAE;fill-rule:nonzero}
    .fil6 {fill:#D6C0B2;fill-rule:nonzero}
    .fil0 {fill:#DEB194;fill-rule:nonzero}
    .fil12 {fill:#E2D1C7;fill-rule:nonzero}
    .fil8 {fill:#E5E5E5;fill-rule:nonzero}
    .fil4 {fill:#EACED5;fill-rule:nonzero}
    .fil3 {fill:#EFD8DB;fill-rule:nonzero}
   ]]></style>
    <clipPath
       clipPathUnits="userSpaceOnUse"
       id="clipPath6818">
      <path
         inkscape:connector-curvature="0"
         d="M 0,2526 H 2504.36 V 0 H 0 Z"
         id="path6816" />
    </clipPath>
    <clipPath
       clipPathUnits="userSpaceOnUse"
       id="clipPath7906">
      <path
         inkscape:connector-curvature="0"
         d="m 1298.07,1668.61 h 81.19 v -34.65 h -81.19 z"
         id="path7904" />
    </clipPath>
    <clipPath
       clipPathUnits="userSpaceOnUse"
       id="clipPath8850">
      <path
         inkscape:connector-curvature="0"
         d="m 409.975,1888.28 h 11.646 v -52.84 h -11.646 z"
         id="path8848" />
    </clipPath>
    <clipPath
       clipPathUnits="userSpaceOnUse"
       id="clipPath8866">
      <path
         inkscape:connector-curvature="0"
         d="m 455.31,1888.21 h 11.547 v -52.77 H 455.31 Z"
         id="path8864" />
    </clipPath>
    <clipPath
       clipPathUnits="userSpaceOnUse"
       id="clipPath8882">
      <path
         inkscape:connector-curvature="0"
         d="m 434.771,1888.46 h 8.084 v -53.15 h -8.084 z"
         id="path8880" />
    </clipPath>
    <style
       type="text/css"
       id="style2-11"><![CDATA[
    .fil4 {fill:#0B0A06;fill-rule:nonzero}
    .fil14 {fill:#0C0906;fill-rule:nonzero}
    .fil6 {fill:#181117;fill-rule:nonzero}
    .fil9 {fill:#39271A;fill-rule:nonzero}
    .fil0 {fill:#513A32;fill-rule:nonzero}
    .fil13 {fill:#56361A;fill-rule:nonzero}
    .fil12 {fill:#68603E;fill-rule:nonzero}
    .fil5 {fill:#8C8344;fill-rule:nonzero}
    .fil7 {fill:#943B38;fill-rule:nonzero}
    .fil3 {fill:#9B785C;fill-rule:nonzero}
    .fil1 {fill:#A09B55;fill-rule:nonzero}
    .fil2 {fill:#B5AE6D;fill-rule:nonzero}
    .fil16 {fill:#B78E70;fill-rule:nonzero}
    .fil11 {fill:#DCD9BC;fill-rule:nonzero}
    .fil10 {fill:#DDC0A2;fill-rule:nonzero}
    .fil18 {fill:#E2D6CC;fill-rule:nonzero}
    .fil8 {fill:#E3E8F1;fill-rule:nonzero}
    .fil17 {fill:#EFD9CA;fill-rule:nonzero}
    .fil15 {fill:#F4E8DC;fill-rule:nonzero}
   ]]></style>
    <style
       type="text/css"
       id="style2-1-4"><![CDATA[
    .fil4 {fill:#0B0A06;fill-rule:nonzero}
    .fil14 {fill:#0C0906;fill-rule:nonzero}
    .fil6 {fill:#181117;fill-rule:nonzero}
    .fil9 {fill:#39271A;fill-rule:nonzero}
    .fil0 {fill:#513A32;fill-rule:nonzero}
    .fil13 {fill:#56361A;fill-rule:nonzero}
    .fil12 {fill:#68603E;fill-rule:nonzero}
    .fil5 {fill:#8C8344;fill-rule:nonzero}
    .fil7 {fill:#943B38;fill-rule:nonzero}
    .fil3 {fill:#9B785C;fill-rule:nonzero}
    .fil1 {fill:#A09B55;fill-rule:nonzero}
    .fil2 {fill:#B5AE6D;fill-rule:nonzero}
    .fil16 {fill:#B78E70;fill-rule:nonzero}
    .fil11 {fill:#DCD9BC;fill-rule:nonzero}
    .fil10 {fill:#DDC0A2;fill-rule:nonzero}
    .fil18 {fill:#E2D6CC;fill-rule:nonzero}
    .fil8 {fill:#E3E8F1;fill-rule:nonzero}
    .fil17 {fill:#EFD9CA;fill-rule:nonzero}
    .fil15 {fill:#F4E8DC;fill-rule:nonzero}
   ]]></style>
    <clipPath
       clipPathUnits="userSpaceOnUse"
       id="clipPath1182">
      <path
         inkscape:connector-curvature="0"
         d="M 0,2526 H 1181 V 0 H 0 Z"
         id="path1180" />
    </clipPath>
    <clipPath
       clipPathUnits="userSpaceOnUse"
       id="clipPath5974">
      <path
         inkscape:connector-curvature="0"
         d="m 890.598,2298.23 h 59.431 v -64.36 h -59.431 z"
         id="path5972" />
    </clipPath>
    <style
       type="text/css"
       id="style2-6-4"><![CDATA[
    .fil5 {fill:#2D1106;fill-rule:nonzero}
    .fil4 {fill:#562314;fill-rule:nonzero}
    .fil2 {fill:#5B2B0B;fill-rule:nonzero}
    .fil1 {fill:#9D552F;fill-rule:nonzero}
    .fil0 {fill:#E0E0E0;fill-rule:nonzero}
    .fil6 {fill:#E5E5E5;fill-rule:nonzero}
    .fil7 {fill:white;fill-rule:nonzero}
    .fil3 {fill:white;fill-rule:nonzero;}
   ]]></style>
    <style
       type="text/css"
       id="style2-3-0"><![CDATA[
    .fil2 {fill:#662E12;fill-rule:nonzero}
    .fil1 {fill:#7FA53D;fill-rule:nonzero}
    .fil3 {fill:#9B8138;fill-rule:nonzero}
    .fil0 {fill:#AACC79;fill-rule:nonzero}
   ]]></style>
    <clipPath
       clipPathUnits="userSpaceOnUse"
       id="clipPath6691">
      <path
         inkscape:connector-curvature="0"
         d="M 0,2526 H 2504.36 V 0 H 0 Z"
         id="path6689" />
    </clipPath>
    <clipPath
       clipPathUnits="userSpaceOnUse"
       id="clipPath7779">
      <path
         inkscape:connector-curvature="0"
         d="m 1298.07,1668.61 h 81.19 v -34.65 h -81.19 z"
         id="path7777" />
    </clipPath>
    <clipPath
       clipPathUnits="userSpaceOnUse"
       id="clipPath8723">
      <path
         inkscape:connector-curvature="0"
         d="m 409.975,1888.28 h 11.646 v -52.84 h -11.646 z"
         id="path8721" />
    </clipPath>
    <clipPath
       clipPathUnits="userSpaceOnUse"
       id="clipPath8739">
      <path
         inkscape:connector-curvature="0"
         d="m 455.31,1888.21 h 11.547 v -52.77 H 455.31 Z"
         id="path8737" />
    </clipPath>
    <clipPath
       clipPathUnits="userSpaceOnUse"
       id="clipPath8755">
      <path
         inkscape:connector-curvature="0"
         d="m 434.771,1888.46 h 8.084 v -53.15 h -8.084 z"
         id="path8753" />
    </clipPath>
    <style
       type="text/css"
       id="style2-68"><![CDATA[
    .str0 {stroke:white;stroke-width:70.56}
    .fil4 {fill:#63123F;fill-rule:nonzero}
    .fil2 {fill:#6D1641;fill-rule:nonzero}
    .fil7 {fill:#822A52;fill-rule:nonzero}
    .fil1 {fill:#994768;fill-rule:nonzero}
    .fil5 {fill:#A5516F;fill-rule:nonzero}
    .fil6 {fill:#BF7191;fill-rule:nonzero}
    .fil3 {fill:#CC87A6;fill-rule:nonzero}
    .fil0 {fill:white;fill-rule:nonzero}
   ]]></style>
    <style
       type="text/css"
       id="style2-7-6"><![CDATA[
    .fil2 {fill:#F7E7D8;fill-rule:nonzero}
    .fil1 {fill:#E7E5DB;fill-rule:nonzero}
    .fil7 {fill:black;fill-rule:nonzero}
    .fil10 {fill:#3D3633;fill-rule:nonzero}
    .fil9 {fill:#3F3936;fill-rule:nonzero}
    .fil6 {fill:#443D3A;fill-rule:nonzero}
    .fil5 {fill:#9E8F85;fill-rule:nonzero}
    .fil8 {fill:#AAA5A2;fill-rule:nonzero}
    .fil3 {fill:#B45E67;fill-rule:nonzero}
    .fil0 {fill:#EFDCCA;fill-rule:nonzero}
    .fil4 {fill:#FCF4ED;fill-rule:nonzero}
   ]]></style>
    <style
       type="text/css"
       id="style2-62"><![CDATA[
    .fil4 {fill:#0B0A06;fill-rule:nonzero}
    .fil14 {fill:#0C0906;fill-rule:nonzero}
    .fil6 {fill:#181117;fill-rule:nonzero}
    .fil9 {fill:#39271A;fill-rule:nonzero}
    .fil0 {fill:#513A32;fill-rule:nonzero}
    .fil13 {fill:#56361A;fill-rule:nonzero}
    .fil12 {fill:#68603E;fill-rule:nonzero}
    .fil5 {fill:#8C8344;fill-rule:nonzero}
    .fil7 {fill:#943B38;fill-rule:nonzero}
    .fil3 {fill:#9B785C;fill-rule:nonzero}
    .fil1 {fill:#A09B55;fill-rule:nonzero}
    .fil2 {fill:#B5AE6D;fill-rule:nonzero}
    .fil16 {fill:#B78E70;fill-rule:nonzero}
    .fil11 {fill:#DCD9BC;fill-rule:nonzero}
    .fil10 {fill:#DDC0A2;fill-rule:nonzero}
    .fil8 {fill:#E3E8F1;fill-rule:nonzero}
    .fil17 {fill:#EFD9CA;fill-rule:nonzero}
    .fil15 {fill:#F4E8DC;fill-rule:nonzero}
   ]]></style>
    <style
       type="text/css"
       id="style2-0-9"><![CDATA[
    .fil4 {fill:#0B0A06;fill-rule:nonzero}
    .fil14 {fill:#0C0906;fill-rule:nonzero}
    .fil6 {fill:#181117;fill-rule:nonzero}
    .fil9 {fill:#39271A;fill-rule:nonzero}
    .fil0 {fill:#513A32;fill-rule:nonzero}
    .fil13 {fill:#56361A;fill-rule:nonzero}
    .fil12 {fill:#68603E;fill-rule:nonzero}
    .fil5 {fill:#8C8344;fill-rule:nonzero}
    .fil7 {fill:#943B38;fill-rule:nonzero}
    .fil3 {fill:#9B785C;fill-rule:nonzero}
    .fil1 {fill:#A09B55;fill-rule:nonzero}
    .fil2 {fill:#B5AE6D;fill-rule:nonzero}
    .fil16 {fill:#B78E70;fill-rule:nonzero}
    .fil11 {fill:#DCD9BC;fill-rule:nonzero}
    .fil10 {fill:#DDC0A2;fill-rule:nonzero}
    .fil18 {fill:#E05B4A;fill-rule:nonzero}
    .fil8 {fill:#E3E8F1;fill-rule:nonzero}
    .fil17 {fill:#EFD9CA;fill-rule:nonzero}
    .fil15 {fill:#F4E8DC;fill-rule:nonzero}
   ]]></style>
    <style
       type="text/css"
       id="style2-89"><![CDATA[
    .fil1 {fill:#DB9D77;fill-rule:nonzero}
    .fil16 {fill:#06001D;fill-rule:nonzero}
    .fil8 {fill:#2B1A08;fill-rule:nonzero}
    .fil5 {fill:#3A2611;fill-rule:nonzero}
    .fil19 {fill:#3D2513;fill-rule:nonzero}
    .fil17 {fill:#44291F;fill-rule:nonzero}
    .fil22 {fill:#442E1D;fill-rule:nonzero}
    .fil11 {fill:#493116;fill-rule:nonzero}
    .fil18 {fill:#49372B;fill-rule:nonzero}
    .fil12 {fill:#6D502B;fill-rule:nonzero}
    .fil13 {fill:#704F33;fill-rule:nonzero}
    .fil20 {fill:#70533A;fill-rule:nonzero}
    .fil7 {fill:#7C726B;fill-rule:nonzero}
    .fil9 {fill:#9B7F31;fill-rule:nonzero}
    .fil6 {fill:#9E9188;fill-rule:nonzero}
    .fil15 {fill:#A69186;fill-rule:nonzero}
    .fil21 {fill:#BAAEA6;fill-rule:nonzero}
    .fil10 {fill:#C1A54C;fill-rule:nonzero}
    .fil14 {fill:#CCBBB4;fill-rule:nonzero}
    .fil2 {fill:#CE8963;fill-rule:nonzero}
    .fil0 {fill:#DEB194;fill-rule:nonzero}
    .fil4 {fill:#EACED5;fill-rule:nonzero}
    .fil3 {fill:#EFD8DB;fill-rule:nonzero}
   ]]></style>
    <style
       type="text/css"
       id="style2-6-40"><![CDATA[
    .fil2 {fill:#B45E67;fill-rule:nonzero}
    .fil1 {fill:#D2ADB4;fill-rule:nonzero}
    .fil4 {fill:#EACED5;fill-rule:nonzero}
    .fil0 {fill:#EDC3C5;fill-rule:nonzero}
    .fil3 {fill:#EFD8DB;fill-rule:nonzero}
   ]]></style>
    <style
       type="text/css"
       id="style2-7-3"><![CDATA[
    .fil1 {fill:#DB9D77;fill-rule:nonzero}
    .fil12 {fill:#100F1C;fill-rule:nonzero}
    .fil23 {fill:#2E293F;fill-rule:nonzero}
    .fil11 {fill:#3F2E32;fill-rule:nonzero}
    .fil17 {fill:#494854;fill-rule:nonzero}
    .fil13 {fill:#4C454D;fill-rule:nonzero}
    .fil14 {fill:#514B60;fill-rule:nonzero}
    .fil10 {fill:#65595B;fill-rule:nonzero}
    .fil16 {fill:#6A7B93;fill-rule:nonzero}
    .fil24 {fill:#72695B;fill-rule:nonzero}
    .fil20 {fill:#8D9B9E;fill-rule:nonzero}
    .fil7 {fill:#8E8B94;fill-rule:nonzero}
    .fil21 {fill:#8E97A5;fill-rule:nonzero}
    .fil15 {fill:#B3BED0;fill-rule:nonzero}
    .fil18 {fill:#B8B5B0;fill-rule:nonzero}
    .fil8 {fill:#CAC9C4;fill-rule:nonzero}
    .fil6 {fill:#CACDD2;fill-rule:nonzero}
    .fil2 {fill:#CE8963;fill-rule:nonzero}
    .fil5 {fill:#D9DDDE;fill-rule:nonzero}
    .fil0 {fill:#DEB194;fill-rule:nonzero}
    .fil9 {fill:#E4E0DD;fill-rule:nonzero}
    .fil19 {fill:#E8E7E2;fill-rule:nonzero}
    .fil4 {fill:#EACED5;fill-rule:nonzero}
    .fil3 {fill:#EFD8DB;fill-rule:nonzero}
    .fil22 {fill:#F2EFED;fill-rule:nonzero}
   ]]></style>
    <style
       type="text/css"
       id="style2-5-1-3"><![CDATA[
    .fil1 {fill:#DB9D77;fill-rule:nonzero}
    .fil18 {fill:#33190E;fill-rule:nonzero}
    .fil10 {fill:#382515;fill-rule:nonzero}
    .fil9 {fill:#3D2718;fill-rule:nonzero}
    .fil16 {fill:#47362A;fill-rule:nonzero}
    .fil6 {fill:#5D3A27;fill-rule:nonzero}
    .fil7 {fill:#715236;fill-rule:nonzero}
    .fil14 {fill:#715E4F;fill-rule:nonzero}
    .fil5 {fill:#7D5B40;fill-rule:nonzero}
    .fil8 {fill:#8E7661;fill-rule:nonzero}
    .fil12 {fill:#968174;fill-rule:nonzero}
    .fil15 {fill:#B79F8F;fill-rule:nonzero}
    .fil17 {fill:#BC9F88;fill-rule:nonzero}
    .fil13 {fill:#BF7F4F;fill-rule:nonzero}
    .fil11 {fill:#C4B4A9;fill-rule:nonzero}
    .fil2 {fill:#CE8963;fill-rule:nonzero}
    .fil0 {fill:#DEB194;fill-rule:nonzero}
    .fil4 {fill:#EACED5;fill-rule:nonzero}
    .fil3 {fill:#EFD8DB;fill-rule:nonzero}
    .fil20 {fill:#382515;}
    .fil19 {fill:#B09C8B;}
   ]]></style>
    <style
       type="text/css"
       id="style2-4-3-9"><![CDATA[
    .fil1 {fill:#DB9D77;fill-rule:nonzero}
    .fil18 {fill:#33190E;fill-rule:nonzero}
    .fil10 {fill:#382515;fill-rule:nonzero}
    .fil9 {fill:#3D2718;fill-rule:nonzero}
    .fil16 {fill:#47362A;fill-rule:nonzero}
    .fil6 {fill:#5D3A27;fill-rule:nonzero}
    .fil7 {fill:#715236;fill-rule:nonzero}
    .fil14 {fill:#715E4F;fill-rule:nonzero}
    .fil5 {fill:#7D5B40;fill-rule:nonzero}
    .fil8 {fill:#8E7661;fill-rule:nonzero}
    .fil12 {fill:#968174;fill-rule:nonzero}
    .fil15 {fill:#B79F8F;fill-rule:nonzero}
    .fil17 {fill:#BC9F88;fill-rule:nonzero}
    .fil13 {fill:#BF7F4F;fill-rule:nonzero}
    .fil11 {fill:#C4B4A9;fill-rule:nonzero}
    .fil2 {fill:#CE8963;fill-rule:nonzero}
    .fil0 {fill:#DEB194;fill-rule:nonzero}
    .fil4 {fill:#EACED5;fill-rule:nonzero}
    .fil3 {fill:#EFD8DB;fill-rule:nonzero}
    .fil20 {fill:#382515;}
    .fil19 {fill:#B09C8B;}
   ]]></style>
    <style
       type="text/css"
       id="style2-1-98"><![CDATA[
    .fil1 {fill:#DB9D77;fill-rule:nonzero}
    .fil12 {fill:#1B1B1B;fill-rule:nonzero}
    .fil10 {fill:#282622;fill-rule:nonzero}
    .fil17 {fill:#493321;fill-rule:nonzero}
    .fil14 {fill:#493522;fill-rule:nonzero}
    .fil11 {fill:#4C3625;fill-rule:nonzero}
    .fil9 {fill:#604833;fill-rule:nonzero}
    .fil19 {fill:#63472E;fill-rule:nonzero}
    .fil13 {fill:#6D523A;fill-rule:nonzero}
    .fil18 {fill:#7F5C3C;fill-rule:nonzero}
    .fil8 {fill:#856B50;fill-rule:nonzero}
    .fil16 {fill:#8C6641;fill-rule:nonzero}
    .fil5 {fill:#9B744E;fill-rule:nonzero}
    .fil6 {fill:#A88158;fill-rule:nonzero}
    .fil7 {fill:#B88F63;fill-rule:nonzero}
    .fil15 {fill:#C1A085;fill-rule:nonzero}
    .fil2 {fill:#CE8963;fill-rule:nonzero}
    .fil0 {fill:#DEB194;fill-rule:nonzero}
    .fil4 {fill:#EACED5;fill-rule:nonzero}
    .fil3 {fill:#EFD8DB;fill-rule:nonzero}
    .fil20 {fill:#FEFEFE;}
    .fil21 {fill:#FEFEFE;}
   ]]></style>
    <style
       type="text/css"
       id="style2-41-9"><![CDATA[
    .fil1 {fill:#DB9D77;fill-rule:nonzero}
    .fil13 {fill:#231414;fill-rule:nonzero}
    .fil15 {fill:#2D0C15;fill-rule:nonzero}
    .fil12 {fill:#2D100B;fill-rule:nonzero}
    .fil9 {fill:#3D2A2A;fill-rule:nonzero}
    .fil8 {fill:#515153;fill-rule:nonzero}
    .fil17 {fill:#897E72;fill-rule:nonzero}
    .fil18 {fill:#9E9078;fill-rule:nonzero}
    .fil6 {fill:#C8C2B6;fill-rule:nonzero}
    .fil2 {fill:#CE8963;fill-rule:nonzero}
    .fil10 {fill:#D3C5BA;fill-rule:nonzero}
    .fil5 {fill:#D4CFC9;fill-rule:nonzero}
    .fil0 {fill:#DEB194;fill-rule:nonzero}
    .fil11 {fill:#E5C9C6;fill-rule:nonzero}
    .fil7 {fill:#E8E2DD;fill-rule:nonzero}
    .fil4 {fill:#EACED5;fill-rule:nonzero}
    .fil3 {fill:#EFD8DB;fill-rule:nonzero}
    .fil14 {fill:#F1C9A6;fill-rule:nonzero}
    .fil16 {fill:#ACACB7;fill-rule:nonzero;}
   ]]></style>
    <style
       type="text/css"
       id="style2-18-79"><![CDATA[
    .fil1 {fill:#DB9D77;fill-rule:nonzero}
    .fil15 {fill:#493842;fill-rule:nonzero}
    .fil12 {fill:#A34051;fill-rule:nonzero}
    .fil13 {fill:#A52F2F;fill-rule:nonzero}
    .fil14 {fill:#AF3E3E;fill-rule:nonzero}
    .fil16 {fill:#CC3636;fill-rule:nonzero}
    .fil2 {fill:#CE8963;fill-rule:nonzero}
    .fil19 {fill:#D17979;fill-rule:nonzero}
    .fil11 {fill:#D85656;fill-rule:nonzero}
    .fil17 {fill:#D86E4E;fill-rule:nonzero}
    .fil18 {fill:#DB7979;fill-rule:nonzero}
    .fil5 {fill:#DDBAB3;fill-rule:nonzero}
    .fil0 {fill:#DEB194;fill-rule:nonzero}
    .fil9 {fill:#E6AFA2;fill-rule:nonzero}
    .fil4 {fill:#EACED5;fill-rule:nonzero}
    .fil3 {fill:#EFD8DB;fill-rule:nonzero}
    .fil6 {fill:#F1D1C0;fill-rule:nonzero}
    .fil20 {fill:#F2DAD6;fill-rule:nonzero}
    .fil8 {fill:#F3B492;fill-rule:nonzero}
    .fil10 {fill:#F3D3CE;fill-rule:nonzero}
    .fil24 {fill:#F4D7CB;fill-rule:nonzero}
    .fil23 {fill:#F7E8E7;fill-rule:nonzero}
    .fil21 {fill:#F9ECEA;fill-rule:nonzero}
    .fil7 {fill:#FACBBE;fill-rule:nonzero}
    .fil22 {fill:#FCECE8;fill-rule:nonzero}
   ]]></style>
    <clipPath
       clipPathUnits="userSpaceOnUse"
       id="clipPath6818-7">
      <path
         inkscape:connector-curvature="0"
         d="M 0,2526 H 2504.36 V 0 H 0 Z"
         id="path6816-9" />
    </clipPath>
    <clipPath
       clipPathUnits="userSpaceOnUse"
       id="clipPath7906-3">
      <path
         inkscape:connector-curvature="0"
         d="m 1298.07,1668.61 h 81.19 v -34.65 h -81.19 z"
         id="path7904-5" />
    </clipPath>
    <clipPath
       clipPathUnits="userSpaceOnUse"
       id="clipPath8850-4">
      <path
         inkscape:connector-curvature="0"
         d="m 409.975,1888.28 h 11.646 v -52.84 h -11.646 z"
         id="path8848-2" />
    </clipPath>
    <clipPath
       clipPathUnits="userSpaceOnUse"
       id="clipPath8866-6">
      <path
         inkscape:connector-curvature="0"
         d="m 455.31,1888.21 h 11.547 v -52.77 H 455.31 Z"
         id="path8864-9" />
    </clipPath>
    <clipPath
       clipPathUnits="userSpaceOnUse"
       id="clipPath8882-5">
      <path
         inkscape:connector-curvature="0"
         d="m 434.771,1888.46 h 8.084 v -53.15 h -8.084 z"
         id="path8880-3" />
    </clipPath>
    <style
       type="text/css"
       id="style2-29"><![CDATA[
    .fil4 {fill:#0B0A06;fill-rule:nonzero}
    .fil14 {fill:#0C0906;fill-rule:nonzero}
    .fil6 {fill:#181117;fill-rule:nonzero}
    .fil9 {fill:#39271A;fill-rule:nonzero}
    .fil0 {fill:#513A32;fill-rule:nonzero}
    .fil13 {fill:#56361A;fill-rule:nonzero}
    .fil12 {fill:#68603E;fill-rule:nonzero}
    .fil5 {fill:#8C8344;fill-rule:nonzero}
    .fil7 {fill:#943B38;fill-rule:nonzero}
    .fil3 {fill:#9B785C;fill-rule:nonzero}
    .fil1 {fill:#A09B55;fill-rule:nonzero}
    .fil2 {fill:#B5AE6D;fill-rule:nonzero}
    .fil16 {fill:#B78E70;fill-rule:nonzero}
    .fil11 {fill:#DCD9BC;fill-rule:nonzero}
    .fil10 {fill:#DDC0A2;fill-rule:nonzero}
    .fil18 {fill:#E2D6CC;fill-rule:nonzero}
    .fil8 {fill:#E3E8F1;fill-rule:nonzero}
    .fil17 {fill:#EFD9CA;fill-rule:nonzero}
    .fil15 {fill:#F4E8DC;fill-rule:nonzero}
   ]]></style>
    <style
       type="text/css"
       id="style2-1-1"><![CDATA[
    .fil4 {fill:#0B0A06;fill-rule:nonzero}
    .fil14 {fill:#0C0906;fill-rule:nonzero}
    .fil6 {fill:#181117;fill-rule:nonzero}
    .fil9 {fill:#39271A;fill-rule:nonzero}
    .fil0 {fill:#513A32;fill-rule:nonzero}
    .fil13 {fill:#56361A;fill-rule:nonzero}
    .fil12 {fill:#68603E;fill-rule:nonzero}
    .fil5 {fill:#8C8344;fill-rule:nonzero}
    .fil7 {fill:#943B38;fill-rule:nonzero}
    .fil3 {fill:#9B785C;fill-rule:nonzero}
    .fil1 {fill:#A09B55;fill-rule:nonzero}
    .fil2 {fill:#B5AE6D;fill-rule:nonzero}
    .fil16 {fill:#B78E70;fill-rule:nonzero}
    .fil11 {fill:#DCD9BC;fill-rule:nonzero}
    .fil10 {fill:#DDC0A2;fill-rule:nonzero}
    .fil18 {fill:#E2D6CC;fill-rule:nonzero}
    .fil8 {fill:#E3E8F1;fill-rule:nonzero}
    .fil17 {fill:#EFD9CA;fill-rule:nonzero}
    .fil15 {fill:#F4E8DC;fill-rule:nonzero}
   ]]></style>
    <clipPath
       clipPathUnits="userSpaceOnUse"
       id="clipPath1182-3">
      <path
         inkscape:connector-curvature="0"
         d="M 0,2526 H 1181 V 0 H 0 Z"
         id="path1180-4" />
    </clipPath>
    <clipPath
       clipPathUnits="userSpaceOnUse"
       id="clipPath5974-5">
      <path
         inkscape:connector-curvature="0"
         d="m 890.598,2298.23 h 59.431 v -64.36 h -59.431 z"
         id="path5972-8" />
    </clipPath>
    <style
       type="text/css"
       id="style2-6-35"><![CDATA[
    .fil5 {fill:#2D1106;fill-rule:nonzero}
    .fil4 {fill:#562314;fill-rule:nonzero}
    .fil2 {fill:#5B2B0B;fill-rule:nonzero}
    .fil1 {fill:#9D552F;fill-rule:nonzero}
    .fil0 {fill:#E0E0E0;fill-rule:nonzero}
    .fil6 {fill:#E5E5E5;fill-rule:nonzero}
    .fil7 {fill:white;fill-rule:nonzero}
    .fil3 {fill:white;fill-rule:nonzero;}
   ]]></style>
    <style
       type="text/css"
       id="style2-3-1"><![CDATA[
    .fil2 {fill:#662E12;fill-rule:nonzero}
    .fil1 {fill:#7FA53D;fill-rule:nonzero}
    .fil3 {fill:#9B8138;fill-rule:nonzero}
    .fil0 {fill:#AACC79;fill-rule:nonzero}
   ]]></style>
    <clipPath
       clipPathUnits="userSpaceOnUse"
       id="clipPath6691-4">
      <path
         inkscape:connector-curvature="0"
         d="M 0,2526 H 2504.36 V 0 H 0 Z"
         id="path6689-7" />
    </clipPath>
    <clipPath
       clipPathUnits="userSpaceOnUse"
       id="clipPath7779-6">
      <path
         inkscape:connector-curvature="0"
         d="m 1298.07,1668.61 h 81.19 v -34.65 h -81.19 z"
         id="path7777-6" />
    </clipPath>
    <clipPath
       clipPathUnits="userSpaceOnUse"
       id="clipPath8723-5">
      <path
         inkscape:connector-curvature="0"
         d="m 409.975,1888.28 h 11.646 v -52.84 h -11.646 z"
         id="path8721-4" />
    </clipPath>
    <clipPath
       clipPathUnits="userSpaceOnUse"
       id="clipPath8739-0">
      <path
         inkscape:connector-curvature="0"
         d="m 455.31,1888.21 h 11.547 v -52.77 H 455.31 Z"
         id="path8737-4" />
    </clipPath>
    <clipPath
       clipPathUnits="userSpaceOnUse"
       id="clipPath8755-0">
      <path
         inkscape:connector-curvature="0"
         d="m 434.771,1888.46 h 8.084 v -53.15 h -8.084 z"
         id="path8753-6" />
    </clipPath>
    <style
       type="text/css"
       id="style2-68-2"><![CDATA[
    .str0 {stroke:white;stroke-width:70.56}
    .fil4 {fill:#63123F;fill-rule:nonzero}
    .fil2 {fill:#6D1641;fill-rule:nonzero}
    .fil7 {fill:#822A52;fill-rule:nonzero}
    .fil1 {fill:#994768;fill-rule:nonzero}
    .fil5 {fill:#A5516F;fill-rule:nonzero}
    .fil6 {fill:#BF7191;fill-rule:nonzero}
    .fil3 {fill:#CC87A6;fill-rule:nonzero}
    .fil0 {fill:white;fill-rule:nonzero}
   ]]></style>
    <style
       type="text/css"
       id="style2-7-83"><![CDATA[
    .fil2 {fill:#F7E7D8;fill-rule:nonzero}
    .fil1 {fill:#E7E5DB;fill-rule:nonzero}
    .fil7 {fill:black;fill-rule:nonzero}
    .fil10 {fill:#3D3633;fill-rule:nonzero}
    .fil9 {fill:#3F3936;fill-rule:nonzero}
    .fil6 {fill:#443D3A;fill-rule:nonzero}
    .fil5 {fill:#9E8F85;fill-rule:nonzero}
    .fil8 {fill:#AAA5A2;fill-rule:nonzero}
    .fil3 {fill:#B45E67;fill-rule:nonzero}
    .fil0 {fill:#EFDCCA;fill-rule:nonzero}
    .fil4 {fill:#FCF4ED;fill-rule:nonzero}
   ]]></style>
    <style
       type="text/css"
       id="style2-62-8"><![CDATA[
    .fil4 {fill:#0B0A06;fill-rule:nonzero}
    .fil14 {fill:#0C0906;fill-rule:nonzero}
    .fil6 {fill:#181117;fill-rule:nonzero}
    .fil9 {fill:#39271A;fill-rule:nonzero}
    .fil0 {fill:#513A32;fill-rule:nonzero}
    .fil13 {fill:#56361A;fill-rule:nonzero}
    .fil12 {fill:#68603E;fill-rule:nonzero}
    .fil5 {fill:#8C8344;fill-rule:nonzero}
    .fil7 {fill:#943B38;fill-rule:nonzero}
    .fil3 {fill:#9B785C;fill-rule:nonzero}
    .fil1 {fill:#A09B55;fill-rule:nonzero}
    .fil2 {fill:#B5AE6D;fill-rule:nonzero}
    .fil16 {fill:#B78E70;fill-rule:nonzero}
    .fil11 {fill:#DCD9BC;fill-rule:nonzero}
    .fil10 {fill:#DDC0A2;fill-rule:nonzero}
    .fil8 {fill:#E3E8F1;fill-rule:nonzero}
    .fil17 {fill:#EFD9CA;fill-rule:nonzero}
    .fil15 {fill:#F4E8DC;fill-rule:nonzero}
   ]]></style>
    <style
       type="text/css"
       id="style2-0-2"><![CDATA[
    .fil4 {fill:#0B0A06;fill-rule:nonzero}
    .fil14 {fill:#0C0906;fill-rule:nonzero}
    .fil6 {fill:#181117;fill-rule:nonzero}
    .fil9 {fill:#39271A;fill-rule:nonzero}
    .fil0 {fill:#513A32;fill-rule:nonzero}
    .fil13 {fill:#56361A;fill-rule:nonzero}
    .fil12 {fill:#68603E;fill-rule:nonzero}
    .fil5 {fill:#8C8344;fill-rule:nonzero}
    .fil7 {fill:#943B38;fill-rule:nonzero}
    .fil3 {fill:#9B785C;fill-rule:nonzero}
    .fil1 {fill:#A09B55;fill-rule:nonzero}
    .fil2 {fill:#B5AE6D;fill-rule:nonzero}
    .fil16 {fill:#B78E70;fill-rule:nonzero}
    .fil11 {fill:#DCD9BC;fill-rule:nonzero}
    .fil10 {fill:#DDC0A2;fill-rule:nonzero}
    .fil18 {fill:#E05B4A;fill-rule:nonzero}
    .fil8 {fill:#E3E8F1;fill-rule:nonzero}
    .fil17 {fill:#EFD9CA;fill-rule:nonzero}
    .fil15 {fill:#F4E8DC;fill-rule:nonzero}
   ]]></style>
    <style
       type="text/css"
       id="style2-36"><![CDATA[
    .str0 {stroke:white;stroke-width:70.56}
    .fil1 {fill:#2E4404;fill-rule:nonzero}
    .fil3 {fill:#446D05;fill-rule:nonzero}
    .fil2 {fill:#4F890B;fill-rule:nonzero}
    .fil0 {fill:white;fill-rule:nonzero}
   ]]></style>
    <style
       type="text/css"
       id="style2-48-0"><![CDATA[
    .fil11 {fill:#053749;fill-rule:nonzero}
    .fil6 {fill:#823D3D;fill-rule:nonzero}
    .fil1 {fill:#8C334E;fill-rule:nonzero}
    .fil8 {fill:#8E3945;fill-rule:nonzero}
    .fil4 {fill:#943734;fill-rule:nonzero}
    .fil0 {fill:#9B4864;fill-rule:nonzero}
    .fil2 {fill:#9B4964;fill-rule:nonzero}
    .fil3 {fill:#A35A74;fill-rule:nonzero}
    .fil7 {fill:#AA5B6C;fill-rule:nonzero}
    .fil9 {fill:#BF7588;fill-rule:nonzero}
    .fil5 {fill:#D38484;fill-rule:nonzero}
    .fil10 {fill:#EFD4AF;fill-rule:nonzero}
    .fil12 {fill:#F4E6D0;fill-rule:nonzero}
    .fil13 {fill:white;fill-rule:nonzero}
   ]]></style>
    <style
       type="text/css"
       id="style2-71"><![CDATA[
    .fil2 {fill:#B2725B;fill-rule:nonzero}
    .fil0 {fill:#DDD8A6;fill-rule:nonzero}
    .fil1 {fill:#EFECBD;fill-rule:nonzero}
   ]]></style>
    <style
       type="text/css"
       id="style2-9-387"><![CDATA[
    .fil3 {fill:black;fill-rule:nonzero}
    .fil10 {fill:#99816B;fill-rule:nonzero}
    .fil11 {fill:#AF987E;fill-rule:nonzero}
    .fil6 {fill:#B7A18A;fill-rule:nonzero}
    .fil1 {fill:#BA855A;fill-rule:nonzero}
    .fil7 {fill:#CCBAA3;fill-rule:nonzero}
    .fil9 {fill:#D3C2B2;fill-rule:nonzero}
    .fil0 {fill:#DDC8B1;fill-rule:nonzero}
    .fil8 {fill:#E0CFB8;fill-rule:nonzero}
    .fil4 {fill:#E5D6C6;fill-rule:nonzero}
    .fil5 {fill:#EFE5DC;fill-rule:nonzero}
    .fil2 {fill:white;fill-rule:nonzero}
   ]]></style>
    <style
       type="text/css"
       id="style2-1-84"><![CDATA[
    .str0 {stroke:white;stroke-width:70.56}
    .fil10 {fill:#6A1B13;fill-rule:nonzero}
    .fil2 {fill:#948D78;fill-rule:nonzero}
    .fil4 {fill:#AB9A5C;fill-rule:nonzero}
    .fil7 {fill:#D1C492;fill-rule:nonzero}
    .fil8 {fill:#E6E6E6;fill-rule:nonzero}
    .fil3 {fill:#EAE7E1;fill-rule:nonzero}
    .fil9 {fill:#EFB59E;fill-rule:nonzero}
    .fil1 {fill:#EFEAE1;fill-rule:nonzero}
    .fil5 {fill:#F2F2F2;fill-rule:nonzero}
    .fil6 {fill:#F7F1F0;fill-rule:nonzero}
    .fil0 {fill:white;fill-rule:nonzero}
   ]]></style>
    <style
       type="text/css"
       id="style2-4-84"><![CDATA[
    .fil4 {fill:#C1AA6F;fill-rule:nonzero}
    .fil2 {fill:#CEB880;fill-rule:nonzero}
    .fil5 {fill:#E0B13D;fill-rule:nonzero}
    .fil1 {fill:#E2AF10;fill-rule:nonzero}
    .fil0 {fill:#E5D19A;fill-rule:nonzero}
    .fil3 {fill:#E8D3A0;fill-rule:nonzero}
   ]]></style>
    <style
       type="text/css"
       id="style2-42-10"><![CDATA[
    .fil0 {fill:#628C2C;fill-rule:nonzero}
    .fil1 {fill:#914E1D;fill-rule:nonzero}
    .fil2 {fill:#C18761;fill-rule:nonzero}
    .fil3 {fill:#D1AA8F;fill-rule:nonzero}
   ]]></style>
    <style
       type="text/css"
       id="style2-2-5"><![CDATA[
    .fil1 {fill:#160901;fill-rule:nonzero}
    .fil0 {fill:#331704;fill-rule:nonzero}
    .fil2 {fill:#5B2A08;fill-rule:nonzero}
    .fil7 {fill:#628C2C;fill-rule:nonzero}
    .fil6 {fill:#6D0707;fill-rule:nonzero}
    .fil4 {fill:gray;fill-rule:nonzero}
    .fil8 {fill:#914E1D;fill-rule:nonzero}
    .fil5 {fill:#A01010;fill-rule:nonzero}
    .fil9 {fill:#C18761;fill-rule:nonzero}
    .fil10 {fill:#D1AA8F;fill-rule:nonzero}
    .fil3 {fill:#D1CCC9;fill-rule:nonzero}
   ]]></style>
    <style
       type="text/css"
       id="style2-7-0"><![CDATA[
    .fil3 {fill:black;fill-rule:nonzero}
    .fil10 {fill:#99816B;fill-rule:nonzero}
    .fil11 {fill:#AF987E;fill-rule:nonzero}
    .fil6 {fill:#B7A18A;fill-rule:nonzero}
    .fil1 {fill:#BA855A;fill-rule:nonzero}
    .fil7 {fill:#CCBAA3;fill-rule:nonzero}
    .fil9 {fill:#D3C2B2;fill-rule:nonzero}
    .fil0 {fill:#DDC8B1;fill-rule:nonzero}
    .fil8 {fill:#E0CFB8;fill-rule:nonzero}
    .fil4 {fill:#E5D6C6;fill-rule:nonzero}
    .fil5 {fill:#EFE5DC;fill-rule:nonzero}
    .fil2 {fill:white;fill-rule:nonzero}
   ]]></style>
    <font
       vert-adv-y="90"
       vert-origin-y="90"
       vert-origin-x="45"
       horiz-origin-y="0"
       horiz-origin-x="0"
       horiz-adv-x="722"
       font-weight="700"
       font-variant="normal"
       id="FontID0-1">
      <font-face
         font-family="Arial"
         id="font-face2-31" />
      <missing-glyph
         id="missing-glyph6-5">
        <path
           d="M 0 0 Z"
           id="path4-85" />
      </missing-glyph>
      <glyph
         unicode="D"
         horiz-adv-x="722"
         id="glyph10-8">
        <path
           d="M 72.9993 716.001 l 263.669 0 c 59.4971 0 104.834 -4.50075 136.002 -13.6706 c 41.8309 -12.3311 77.8292 -34.3297 107.666 -65.9956 c 29.9973 -31.5052 52.6618 -70.1672 68.3302 -116.001 c 15.5 -45.6657 23.3304 -102.17 23.3304 -169.168 c 0 -58.9996 -7.33285 -109.664 -21.9985 -152.329 c -17.8346 -52.1719 -43.3312 -94.3396 -76.4974 -126.503 c -24.999 -24.5015 -58.8312 -43.4996 -101.336 -57.1702 c -31.8344 -10.165 -74.3312 -15.1632 -127.667 -15.1632 l -271.499 0 l 0 716.001 Z m 145.004 -121 l 0 -474.002 l 107.497 0 c 40.1699 0 69.1645 2.33457 86.9991 6.83532 c 23.4988 5.8326 42.8336 15.8292 58.1653 29.8289 c 15.5 13.9998 27.9995 37.001 37.667 69.0038 c 9.83581 32.0028 14.6657 75.8315 14.6657 131.165 c 0 55.3332 -4.82988 97.6693 -14.6657 127.337 c -9.66742 29.6605 -23.3304 52.6618 -40.8282 69.3329 c -17.5055 16.4951 -39.6724 27.8311 -66.6692 33.6637 c -20.0008 4.50075 -59.5048 6.83532 -118.168 6.83532 l -64.6638 0 Z"
           id="path8-3" />
      </glyph>
      <glyph
         unicode="A"
         horiz-adv-x="722"
         id="glyph14-22">
        <path
           d="M 717.999 0 l -156.164 0 l -61.8317 162.999 l -287.168 0 l -59.5048 -162.999 l -153.332 0 l 277.998 716.001 l 153.171 0 l 286.831 -716.001 Z m -265.001 283.999 l -99.4986 265.001 l -96.6665 -265.001 l 196.165 0 Z"
           id="path12-2" />
      </glyph>
      <glyph
         unicode="L"
         horiz-adv-x="610"
         id="glyph18-61">
        <path
           d="M 77.0026 0 l 0 710 l 144.996 0 l 0 -589.001 l 359.003 0 l 0 -121 l -503.999 0 Z"
           id="path16-2" />
      </glyph>
      <glyph
         unicode="P"
         horiz-adv-x="666"
         id="glyph22-66">
        <path
           d="M 72.9993 0 l 0 716.001 l 231.834 0 c 87.8334 0 144.996 -3.49803 171.664 -10.6701 c 41.0042 -10.8309 75.3339 -34.1613 103.004 -70.1672 c 27.6628 -35.9983 41.5018 -82.4984 41.5018 -139.5 c 0 -43.9971 -8.00643 -80.8297 -23.8356 -110.827 c -15.9976 -30.005 -36.1667 -53.5038 -60.6682 -70.6724 c -24.5015 -17.0003 -49.5006 -28.3287 -74.8364 -33.8321 c -34.4981 -6.83532 -84.3278 -10.3333 -149.665 -10.3333 l -93.9952 0 l 0 -269.999 l -145.004 0 Z m 145.004 595.002 l 0 -204.003 l 78.8319 0 c 56.8334 0 94.6688 3.83482 113.835 11.3361 c 19.1664 7.50124 34.1613 19.1664 44.9998 35.3324 c 10.8309 15.9976 16.3267 34.4981 16.3267 55.8307 c 0 26.1702 -7.66198 47.6712 -22.8329 64.6714 c -15.3316 17.0003 -34.4981 27.6628 -57.9969 31.9951 c -17.1687 3.16889 -51.6667 4.83754 -103.67 4.83754 l -69.4937 0 Z"
           id="path20-6" />
      </glyph>
    </font>
    <style
       type="text/css"
       id="style25-24"><![CDATA[
    @font-face { font-family:"Arial";src:url("#FontID0") format(svg)}
    .fil5 {fill:#FF6600}
    .fil4 {fill:#EFB73A;fill-rule:nonzero}
    .fil2 {fill:#F9C646;fill-rule:nonzero}
    .fil1 {fill:#FCCD47;fill-rule:nonzero}
    .fil3 {fill:#FFDB80;fill-rule:nonzero}
    .fil0 {fill:#FFE8BB;fill-rule:nonzero}
    .fnt0 {font-weight:bold;font-size:1306.45px;font-family:'Arial'}
   ]]></style>
    <style
       type="text/css"
       id="style2-5-04"><![CDATA[
    .fil0 {fill:#10330B;fill-rule:nonzero}
    .fil1 {fill:#1C4C15;fill-rule:nonzero}
   ]]></style>
    <style
       type="text/css"
       id="style2-8-6"><![CDATA[
    .fil0 {fill:#2B4403;fill-rule:nonzero}
    .fil3 {fill:#2E2923;fill-rule:nonzero}
    .fil1 {fill:#4E7C05;fill-rule:nonzero}
    .fil2 {fill:#6A9615;fill-rule:nonzero}
    .fil4 {fill:#6D645B;fill-rule:nonzero}
   ]]></style>
    <font
       vert-adv-y="90"
       vert-origin-y="90"
       vert-origin-x="45"
       horiz-origin-y="0"
       horiz-origin-x="0"
       horiz-adv-x="722"
       font-weight="700"
       font-variant="normal"
       id="FontID0-2-6">
      <font-face
         font-family="Arial"
         id="font-face2-4-85" />
      <missing-glyph
         id="missing-glyph6-1-4">
        <path
           d="M 0 0 Z"
           id="path4-8-1" />
      </missing-glyph>
      <glyph
         unicode="T"
         horiz-adv-x="610"
         id="glyph10-9-39">
        <path
           d="M 234.001 0 l 0 594.999 l -212.004 0 l 0 121.001 l 568 0 l 0 -121.001 l -210.993 0 l 0 -594.999 l -145.002 0 Z"
           id="path8-2-09" />
      </glyph>
      <glyph
         unicode="s"
         horiz-adv-x="556"
         id="glyph14-6-2">
        <path
           d="M 22.9992 145.996 l 138.004 21.0036 c 5.83181 -26.4983 17.6594 -46.6636 35.6651 -60.3319 c 17.8326 -13.8323 43.0005 -20.6665 75.1665 -20.6665 c 35.5011 0 62.1634 6.497 80.1691 19.5001 c 11.9917 9.16687 17.9966 21.4957 17.9966 36.8315 c 0 10.3332 -3.33506 18.9989 -9.83206 25.8331 c -6.83415 6.497 -22.17 12.666 -45.8344 18.1697 c -110.832 24.4936 -181.005 46.8276 -210.665 67.002 c -41.1689 28.1658 -61.6714 67.166 -61.6714 116.992 c 0 45.1692 17.8326 83.003 53.3337 113.675 c 35.5011 30.6625 90.5024 45.9984 165.004 45.9984 c 71.0023 0 123.835 -11.6727 158.334 -34.8359 c 34.4988 -23.3363 58.3272 -57.662 71.3303 -103.168 l -129.001 -24.0015 c -5.49466 20.3384 -16.165 36.0023 -31.6649 46.8367 c -15.4998 10.8344 -37.6698 16.165 -66.5008 16.165 c -36.3303 0 -62.3365 -4.99348 -78.1644 -15.1627 c -10.4973 -7.1713 -15.6639 -16.5022 -15.6639 -27.8378 c 0 -9.83206 4.49231 -18.1606 13.6592 -24.9948 c 12.5019 -9.16687 55.3384 -22.006 128.673 -38.6722 c 73.3259 -16.6662 124.5 -36.9955 153.495 -61.1611 c 28.831 -24.3387 43.1645 -58.5003 43.1645 -102.166 c 0 -47.5019 -19.8281 -88.5068 -59.6667 -122.668 c -39.6654 -34.1707 -98.4938 -51.3381 -176.494 -51.3381 c -70.6651 0 -126.669 14.3335 -168.002 42.8364 c -41.1689 28.503 -68.1684 67.166 -80.8343 116.162 Z"
           id="path12-7-14" />
      </glyph>
      <glyph
         unicode="b"
         horiz-adv-x="610"
         id="glyph18-6-3">
        <path
           d="M 65.9997 0 l 0 716 l 137.002 0 l 0 -258.331 c 42.3353 48.1671 92.3339 72.3326 150.333 72.3326 c 63.1658 0 115.333 -22.8352 156.666 -68.6695 c 41.3329 -45.8344 61.9994 -111.67 61.9994 -197.498 c 0 -88.6708 -21.0036 -157.003 -63.1658 -204.997 c -42.1713 -47.839 -93.5003 -71.8406 -153.668 -71.8406 c -29.6693 0 -58.8284 7.67247 -87.6685 22.8352 c -28.831 15.3358 -53.6617 37.3327 -74.5013 66.3368 l 0 -76.1689 l -126.997 0 Z m 134.997 269.502 c 0 -53.8349 8.50168 -93.8374 25.505 -119.506 c 23.8284 -36.6584 55.3293 -54.9921 94.8306 -54.9921 c 30.3345 0 56.1676 12.994 77.6633 39.0002 c 21.3408 25.9971 32.002 66.9929 32.002 122.832 c 0 59.4935 -10.8344 102.33 -32.3301 128.664 c -21.5048 26.3343 -49.0054 39.5014 -82.6659 39.5014 c -33.0044 0 -60.3319 -12.8391 -82.1647 -38.499 c -21.8328 -25.6691 -32.8404 -64.6693 -32.8404 -117.001 Z"
           id="path16-6-33" />
      </glyph>
      <glyph
         unicode="u"
         horiz-adv-x="610"
         id="glyph22-3-63">
        <path
           d="M 414.997 0 l 0 77.6633 c -18.9989 -27.6646 -43.8297 -49.6615 -74.6654 -66.1637 c -30.8357 -16.3291 -63.3298 -24.5027 -97.5005 -24.5027 c -35 0 -66.3277 7.67247 -94.0014 22.9992 c -27.8287 15.3358 -47.8299 37.0046 -60.1587 64.6693 c -12.5019 27.8378 -18.6709 66.1637 -18.6709 115.169 l 0 329.169 l 137.002 0 l 0 -239.004 c 0 -73.1618 2.49674 -117.83 7.66336 -134.332 c 5.0026 -16.5022 14.1695 -29.6693 27.6646 -39.1642 c 13.3403 -9.66804 30.3345 -14.5066 51.001 -14.5066 c 23.5004 0 44.504 6.50611 63.1658 19.3361 c 18.6709 12.83 31.3369 28.831 38.171 48.0031 c 6.83415 19.163 10.3332 65.8265 10.3332 140.328 l 0 219.34 l 137.002 0 l 0 -519.003 l -127.006 0 Z"
           id="path20-5-60" />
      </glyph>
      <glyph
         unicode="r"
         horiz-adv-x="389"
         id="glyph26-26">
        <path
           d="M 203.002 0 l -137.002 0 l 0 519.003 l 126.997 0 l 0 -73.6721 c 21.8328 34.8359 41.5061 57.6711 59.0015 68.5055 c 17.5045 10.8253 37.3327 16.165 59.5027 16.165 c 31.3369 0 61.4982 -8.6657 90.5024 -25.8331 l -42.4993 -119.671 c -23.1723 14.9987 -44.668 22.498 -64.5053 22.498 c -19.3361 0 -35.6651 -5.33064 -48.9963 -15.8279 c -13.3311 -10.6704 -23.8375 -29.6693 -31.5009 -57.334 c -7.66336 -27.6646 -11.4996 -85.6638 -11.4996 -173.833 l 0 -160.001 Z"
           id="path24-4" />
      </glyph>
      <glyph
         unicode="l"
         horiz-adv-x="277"
         id="glyph30-81">
        <path
           d="M 71.9955 0 l 0 716 l 137.002 0 l 0 -716 l -137.002 0 Z"
           id="path28-7" />
      </glyph>
      </font>
</defs>
</svg>
